  0
SECTION
  2
HEADER
  9
$ACADVER
  1
AC1018
  9
$ACADMAINTVER
 70
     0
  9
$DWGCODEPAGE
  3
ANSI_932
  9
$INSBASE
 10
0.0
 20
0.0
 30
0.0
  9
$EXTMIN
 10
-280.5271077837249
 20
-213.5197280349205
 30
0.0
  9
$EXTMAX
 10
2499.472892216276
 20
1709.730014220108
 30
0.0
  9
$LIMMIN
 10
0.0
 20
0.0
  9
$LIMMAX
 10
0.0
 20
0.0
  9
$ORTHOMODE
 70
     0
  9
$REGENMODE
 70
     1
  9
$FILLMODE
 70
     1
  9
$QTEXTMODE
 70
     0
  9
$MIRRTEXT
 70
     1
  9
$LTSCALE
 40
127.0
  9
$ATTMODE
 70
     1
  9
$TEXTSIZE
 40
0.0
  9
$TRACEWID
 40
1.0
  9
$TEXTSTYLE
  7
Standard
  9
$CLAYER
  8
一般
  9
$CELTYPE
  6
Continuous
  9
$CECOLOR
 62
   256
  9
$CELTSCALE
 40
1.0
  9
$DISPSILH
 70
     0
  9
$DIMSCALE
 40
1.0
  9
$DIMASZ
 40
22.4482421875
  9
$DIMEXO
 40
15.875
  9
$DIMDLI
 40
10.16
  9
$DIMRND
 40
0.0
  9
$DIMDLE
 40
1.587499999999999
  9
$DIMEXE
 40
31.75
  9
$DIMTP
 40
0.0
  9
$DIMTM
 40
0.0
  9
$DIMTXT
 40
24.4326171875
  9
$DIMCEN
 40
0.0
  9
$DIMTSZ
 40
0.0
  9
$DIMTOL
 70
     0
  9
$DIMLIM
 70
     0
  9
$DIMTIH
 70
     0
  9
$DIMTOH
 70
     0
  9
$DIMSE1
 70
     0
  9
$DIMSE2
 70
     0
  9
$DIMTAD
 70
     1
  9
$DIMZIN
 70
    11
  9
$DIMBLK
  1
VW_SLASH
  9
$DIMASO
 70
     1
  9
$DIMSHO
 70
     1
  9
$DIMPOST
  1
<>
  9
$DIMAPOST
  1
[]
  9
$DIMALT
 70
     0
  9
$DIMALTD
 70
     3
  9
$DIMALTF
 40
0.0393700787401575
  9
$DIMLFAC
 40
1.0
  9
$DIMTOFL
 70
     1
  9
$DIMTVP
 40
0.0
  9
$DIMTIX
 70
     1
  9
$DIMSOXD
 70
     0
  9
$DIMSAH
 70
     0
  9
$DIMBLK1
  1

  9
$DIMBLK2
  1

  9
$DIMSTYLE
  2
Arch
  9
$DIMCLRD
 70
     0
  9
$DIMCLRE
 70
     0
  9
$DIMCLRT
 70
     0
  9
$DIMTFAC
 40
0.8
  9
$DIMGAP
 40
1.587499999999999
  9
$DIMJUST
 70
     0
  9
$DIMSD1
 70
     0
  9
$DIMSD2
 70
     0
  9
$DIMTOLJ
 70
     1
  9
$DIMTZIN
 70
    11
  9
$DIMALTZ
 70
    15
  9
$DIMALTTZ
 70
    15
  9
$DIMUPT
 70
     0
  9
$DIMDEC
 70
     1
  9
$DIMTDEC
 70
     1
  9
$DIMALTU
 70
     4
  9
$DIMALTTD
 70
     2
  9
$DIMTXSTY
  7
ＭＳ ゴシック
  9
$DIMAUNIT
 70
     0
  9
$DIMADEC
 70
     2
  9
$DIMALTRND
 40
0.0
  9
$DIMAZIN
 70
     0
  9
$DIMDSEP
 70
    46
  9
$DIMATFIT
 70
     0
  9
$DIMFRAC
 70
     2
  9
$DIMLDRBLK
  1

  9
$DIMLUNIT
 70
     2
  9
$DIMLWD
 70
    -2
  9
$DIMLWE
 70
    -2
  9
$DIMTMOVE
 70
     0
  9
$LUNITS
 70
     2
  9
$LUPREC
 70
     4
  9
$SKETCHINC
 40
0.1
  9
$FILLETRAD
 40
0.0
  9
$AUNITS
 70
     0
  9
$AUPREC
 70
     0
  9
$MENU
  1
acad
  9
$ELEVATION
 40
0.0
  9
$PELEVATION
 40
0.0
  9
$THICKNESS
 40
0.0
  9
$LIMCHECK
 70
     0
  9
$CHAMFERA
 40
0.0
  9
$CHAMFERB
 40
0.0
  9
$CHAMFERC
 40
0.0
  9
$CHAMFERD
 40
0.0
  9
$SKPOLY
 70
     0
  9
$TDCREATE
 40
2454847.616647315
  9
$TDUCREATE
 40
2454847.241647315
  9
$TDUPDATE
 40
2455933.814145683
  9
$TDUUPDATE
 40
2455933.439145683
  9
$TDINDWG
 40
0.0010329861
  9
$TDUSRTIMER
 40
0.0010320833
  9
$USRTIMER
 70
     1
  9
$ANGBASE
 50
0.0
  9
$ANGDIR
 70
     0
  9
$PDMODE
 70
     1
  9
$PDSIZE
 40
-2.0
  9
$PLINEWID
 40
0.0
  9
$SPLFRAME
 70
     0
  9
$SPLINETYPE
 70
     6
  9
$SPLINESEGS
 70
     8
  9
$HANDSEED
  5
1F1
  9
$SURFTAB1
 70
     6
  9
$SURFTAB2
 70
     6
  9
$SURFTYPE
 70
     6
  9
$SURFU
 70
     6
  9
$SURFV
 70
     6
  9
$UCSBASE
  2

  9
$UCSNAME
  2

  9
$UCSORG
 10
0.0
 20
0.0
 30
0.0
  9
$UCSXDIR
 10
1.0
 20
0.0
 30
0.0
  9
$UCSYDIR
 10
0.0
 20
1.0
 30
0.0
  9
$UCSORTHOREF
  2

  9
$UCSORTHOVIEW
 70
     0
  9
$UCSORGTOP
 10
0.0
 20
0.0
 30
0.0
  9
$UCSORGBOTTOM
 10
0.0
 20
0.0
 30
0.0
  9
$UCSORGLEFT
 10
0.0
 20
0.0
 30
0.0
  9
$UCSORGRIGHT
 10
0.0
 20
0.0
 30
0.0
  9
$UCSORGFRONT
 10
0.0
 20
0.0
 30
0.0
  9
$UCSORGBACK
 10
0.0
 20
0.0
 30
0.0
  9
$PUCSBASE
  2

  9
$PUCSNAME
  2

  9
$PUCSORG
 10
0.0
 20
0.0
 30
0.0
  9
$PUCSXDIR
 10
1.0
 20
0.0
 30
0.0
  9
$PUCSYDIR
 10
0.0
 20
1.0
 30
0.0
  9
$PUCSORTHOREF
  2

  9
$PUCSORTHOVIEW
 70
     0
  9
$PUCSORGTOP
 10
0.0
 20
0.0
 30
0.0
  9
$PUCSORGBOTTOM
 10
0.0
 20
0.0
 30
0.0
  9
$PUCSORGLEFT
 10
0.0
 20
0.0
 30
0.0
  9
$PUCSORGRIGHT
 10
0.0
 20
0.0
 30
0.0
  9
$PUCSORGFRONT
 10
0.0
 20
0.0
 30
0.0
  9
$PUCSORGBACK
 10
0.0
 20
0.0
 30
0.0
  9
$USERI1
 70
     0
  9
$USERI2
 70
     0
  9
$USERI3
 70
     0
  9
$USERI4
 70
     0
  9
$USERI5
 70
     0
  9
$USERR1
 40
0.0
  9
$USERR2
 40
0.0
  9
$USERR3
 40
0.0
  9
$USERR4
 40
0.0
  9
$USERR5
 40
0.0
  9
$WORLDVIEW
 70
     1
  9
$SHADEDGE
 70
     3
  9
$SHADEDIF
 70
    70
  9
$TILEMODE
 70
     1
  9
$MAXACTVP
 70
    16
  9
$PINSBASE
 10
0.0
 20
0.0
 30
0.0
  9
$PLIMCHECK
 70
     0
  9
$PEXTMIN
 10
1.000000000000000E+20
 20
1.000000000000000E+20
 30
1.000000000000000E+20
  9
$PEXTMAX
 10
-1.000000000000000E+20
 20
-1.000000000000000E+20
 30
-1.000000000000000E+20
  9
$PLIMMIN
 10
0.0
 20
0.0
  9
$PLIMMAX
 10
12.0
 20
9.0
  9
$UNITMODE
 70
     0
  9
$VISRETAIN
 70
     0
  9
$PLINEGEN
 70
     1
  9
$PSLTSCALE
 70
     0
  9
$TREEDEPTH
 70
  3020
  9
$CMLSTYLE
  2
Standard
  9
$CMLJUST
 70
     0
  9
$CMLSCALE
 40
1.0
  9
$PROXYGRAPHICS
 70
     0
  9
$MEASUREMENT
 70
     1
  9
$CELWEIGHT
370
     0
  9
$ENDCAPS
280
     0
  9
$JOINSTYLE
280
     0
  9
$LWDISPLAY
290
     1
  9
$INSUNITS
 70
     4
  9
$HYPERLINKBASE
  1

  9
$STYLESHEET
  1

  9
$XEDIT
290
     1
  9
$CEPSNTYPE
380
     0
  9
$PSTYLEMODE
290
     1
  9
$FINGERPRINTGUID
  2

  9
$VERSIONGUID
  2
{8786B8C2-BE3D-4249-92F3-7F8082FE12B8}
  9
$EXTNAMES
290
     1
  9
$PSVPSCALE
 40
0.0
  9
$OLESTARTUP
290
     0
  9
$SORTENTS
280
   127
  9
$INDEXCTL
280
     0
  9
$HIDETEXT
280
     0
  9
$XCLIPFRAME
290
     0
  9
$HALOGAP
280
     0
  9
$OBSCOLOR
 70
   257
  9
$OBSLTYPE
280
     0
  9
$INTERSECTIONDISPLAY
280
     0
  9
$INTERSECTIONCOLOR
 70
   257
  9
$DIMASSOC
280
     1
  9
$PROJECTNAME
  1

  0
ENDSEC
  0
SECTION
  2
CLASSES
  0
CLASS
  1
IMAGE
  2
AcDbRasterImage
  3
ISM
 90
      127
 91
        0
280
     0
281
     1
  0
CLASS
  1
DICTIONARYVAR
  2
AcDbDictionaryVar
  3
ObjectDBX Classes
 90
        0
 91
        2
280
     0
281
     0
  0
CLASS
  1
RASTERVARIABLES
  2
AcDbRasterVariables
  3
ISM
 90
        0
 91
        0
280
     0
281
     0
  0
CLASS
  1
IMAGEDEF
  2
AcDbRasterImageDef
  3
ISM
 90
        0
 91
        0
280
     0
281
     0
  0
CLASS
  1
IMAGEDEF_REACTOR
  2
AcDbRasterImageDefReactor
  3
ISM
 90
        1
 91
        0
280
     0
281
     0
  0
CLASS
  1
IDBUFFER
  2
AcDbIdBuffer
  3
ObjectDBX Classes
 90
        0
 91
        0
280
     0
281
     0
  0
CLASS
  1
SPATIAL_FILTER
  2
AcDbSpatialFilter
  3
ObjectDBX Classes
 90
        0
 91
        0
280
     0
281
     0
  0
CLASS
  1
SORTENTSTABLE
  2
AcDbSortentsTable
  3
ObjectDBX Classes
 90
        0
 91
        1
280
     0
281
     0
  0
CLASS
  1
LAYER_INDEX
  2
AcDbLayerIndex
  3
ObjectDBX Classes
 90
        0
 91
        0
280
     0
281
     0
  0
CLASS
  1
SPATIAL_INDEX
  2
AcDbSpatialIndex
  3
ObjectDBX Classes
 90
        0
 91
        0
280
     0
281
     0
  0
CLASS
  1
OBJECT_PTR
  2
CAseDLPNTableRecord
  3
"ASE-LPNTableRecord"
 90
        1
 91
        0
280
     0
281
     0
  0
CLASS
  1
PLOTSETTINGS
  2
AcDbPlotSettings
  3
ObjectDBX Classes
 90
        0
 91
        0
280
     0
281
     0
  0
CLASS
  1
ACDBDICTIONARYWDFLT
  2
AcDbDictionaryWithDefault
  3
ObjectDBX Classes
 90
        0
 91
        1
280
     0
281
     0
  0
CLASS
  1
WIPEOUT
  2
AcDbWipeout
  3
"WipeOut|Product Desc: Object Enabler for WipeOut entity^I^I^I^I^I^I|Company: Autodesk, Inc.^I^I^I^I^I^I|WEB Address: www.autodesk.com"
 90
      127
 91
       25
280
     0
281
     1
  0
CLASS
  1
WIPEOUTVARIABLES
  2
AcDbWipeoutVariables
  3
"WipeOut|Product Desc:     WipeOut Dbx Application|Company:          Autodesk, Inc.|WEB Address:      www.autodesk.com"
 90
        0
 91
        1
280
     0
281
     0
  0
CLASS
  1
RTEXT
  2
RText
  3
RText|AutoCAD Express Tool|expresstools@autodesk.com
 90
        0
 91
        0
280
     0
281
     1
  0
CLASS
  1
ARCALIGNEDTEXT
  2
AcDbArcAlignedText
  3
ATEXT|AutoCAD Express Tool|expresstools@autodesk.com
 90
        0
 91
        0
280
     0
281
     1
  0
ENDSEC
  0
SECTION
  2
TABLES
  0
TABLE
  2
VPORT
  5
7
330
0
100
AcDbSymbolTable
 70
     5
  0
VPORT
  5
1F0
330
7
100
AcDbSymbolTableRecord
100
AcDbViewportTableRecord
  2
*Active
 70
     0
 10
0.0
 20
0.0
 11
1.0
 21
1.0
 12
2002.632555053406
 22
-36.14898123835815
 13
0.0
 23
0.0
 14
1.0
 24
1.0
 15
0.0
 25
0.0
 16
0.0
 26
0.0
 36
1.0
 17
0.0
 27
0.0
 37
0.0
 40
548.8245478569647
 41
1.672413793103448
 42
50.0
 43
0.0
 44
0.0
 50
0.0
 51
0.0
 71
     0
 72
   100
 73
     1
 74
     1
 75
     0
 76
     0
 77
     0
 78
     0
281
     0
 65
     0
110
0.0
120
0.0
130
0.0
111
1.0
121
0.0
131
0.0
112
0.0
122
1.0
132
0.0
 79
     0
146
0.0
  0
ENDTAB
  0
TABLE
  2
LTYPE
  5
4
330
0
100
AcDbSymbolTable
 70
    11
  0
LTYPE
  5
11
330
4
100
AcDbSymbolTableRecord
100
AcDbLinetypeTableRecord
  2
ByBlock
 70
     0
  3

 72
    65
 73
     0
 40
0.0
  0
LTYPE
  5
12
330
4
100
AcDbSymbolTableRecord
100
AcDbLinetypeTableRecord
  2
ByLayer
 70
     0
  3

 72
    65
 73
     0
 40
0.0
  0
LTYPE
  5
13
330
4
100
AcDbSymbolTableRecord
100
AcDbLinetypeTableRecord
  2
Continuous
 70
     0
  3
Solid line
 72
    65
 73
     0
 40
0.0
  0
LTYPE
  5
36
330
4
100
AcDbSymbolTableRecord
100
AcDbLinetypeTableRecord
  2
STYLE_01
 70
     0
  3

 72
    65
 73
     2
 40
0.4429133858267717
 49
0.2952755905511811
 74
     0
 49
-0.1476377952755906
 74
     0
  0
LTYPE
  5
37
330
4
100
AcDbSymbolTableRecord
100
AcDbLinetypeTableRecord
  2
STYLE_02
 70
     0
  3

 72
    65
 73
     2
 40
0.2214566929133859
 49
0.1476377952755906
 74
     0
 49
-0.0738188976377953
 74
     0
  0
LTYPE
  5
38
330
4
100
AcDbSymbolTableRecord
100
AcDbLinetypeTableRecord
  2
STYLE_03
 70
     0
  3

 72
    65
 73
     2
 40
0.1476377952755906
 49
0.0002
 74
     0
 49
-0.1474377952755906
 74
     0
  0
LTYPE
  5
39
330
4
100
AcDbSymbolTableRecord
100
AcDbLinetypeTableRecord
  2
STYLE_04
 70
     0
  3

 72
    65
 73
     4
 40
0.5905511811023623
 49
0.2952755905511811
 74
     0
 49
-0.1476377952755906
 74
     0
 49
0.0002
 74
     0
 49
-0.1474377952755906
 74
     0
  0
LTYPE
  5
3A
330
4
100
AcDbSymbolTableRecord
100
AcDbLinetypeTableRecord
  2
STYLE_05
 70
     0
  3

 72
    65
 73
     6
 40
0.7381889763779528
 49
0.2952755905511811
 74
     0
 49
-0.1476377952755906
 74
     0
 49
0.0002
 74
     0
 49
-0.1474377952755906
 74
     0
 49
0.0002
 74
     0
 49
-0.1474377952755905
 74
     0
  0
LTYPE
  5
3B
330
4
100
AcDbSymbolTableRecord
100
AcDbLinetypeTableRecord
  2
STYLE_06
 70
     0
  3

 72
    65
 73
     4
 40
0.4166560000000001
 49
0.25
 74
     0
 49
-0.083312
 74
     0
 49
0.027772
 74
     0
 49
-0.055572
 74
     0
  0
LTYPE
  5
3C
330
4
100
AcDbSymbolTableRecord
100
AcDbLinetypeTableRecord
  2
STYLE_07
 70
     0
  3

 72
    65
 73
     6
 40
0.75
 49
0.25
 74
     0
 49
-0.083312
 74
     0
 49
0.2500000000000001
 74
     0
 49
-0.083344
 74
     0
 49
0.027772
 74
     0
 49
-0.055572
 74
     0
  0
LTYPE
  5
3D
330
4
100
AcDbSymbolTableRecord
100
AcDbLinetypeTableRecord
  2
STYLE_08
 70
     0
  3

 72
    65
 73
     6
 40
0.5
 49
0.25
 74
     0
 49
-0.083312
 74
     0
 49
0.027772
 74
     0
 49
-0.055572
 74
     0
 49
0.027772
 74
     0
 49
-0.055572
 74
     0
  0
LTYPE
  5
3E
330
4
100
AcDbSymbolTableRecord
100
AcDbLinetypeTableRecord
  2
STYLE_09
 70
     0
  3

 72
    65
 73
     4
 40
2.0
 49
1.5
 74
     0
 49
-0.1111139999999999
 74
     0
 49
0.2777720000000001
 74
     0
 49
-0.1111139999999999
 74
     0
  0
LTYPE
  5
3F
330
4
100
AcDbSymbolTableRecord
100
AcDbLinetypeTableRecord
  2
STYLE_10
 70
     0
  3

 72
    65
 73
     6
 40
2.375
 49
1.5
 74
     0
 49
-0.1111139999999999
 74
     0
 49
0.2777720000000001
 74
     0
 49
-0.1111139999999999
 74
     0
 49
0.25
 74
     0
 49
-0.125
 74
     0
  0
ENDTAB
  0
TABLE
  2
LAYER
  5
2
102
{ACAD_XDICTIONARY
360
1E1
102
}
330
0
100
AcDbSymbolTable
 70
     9
  0
LAYER
  5
14
330
2
100
AcDbSymbolTableRecord
100
AcDbLayerTableRecord
  2
0
 70
     0
 62
     7
  6
Continuous
370
    15
390
1D
  0
LAYER
  5
40
330
2
100
AcDbSymbolTableRecord
100
AcDbLayerTableRecord
  2
Defpoints
 70
     0
 62
     7
  6
Continuous
290
     0
370
    -3
390
1D
  0
LAYER
  5
41
330
2
100
AcDbSymbolTableRecord
100
AcDbLayerTableRecord
  2
一般
 70
     0
 62
     7
  6
Continuous
370
     5
390
1D
  0
LAYER
  5
42
330
2
100
AcDbSymbolTableRecord
100
AcDbLayerTableRecord
  2
寸法
 70
     0
 62
     7
  6
Continuous
370
     5
390
1D
  0
LAYER
  5
43
330
2
100
AcDbSymbolTableRecord
100
AcDbLayerTableRecord
  2
1
 70
     0
 62
     7
  6
Continuous
370
    15
390
1D
  0
LAYER
  5
44
330
2
100
AcDbSymbolTableRecord
100
AcDbLayerTableRecord
  2
17
 70
     0
 62
     7
  6
Continuous
370
    15
390
1D
  0
LAYER
  5
45
330
2
100
AcDbSymbolTableRecord
100
AcDbLayerTableRecord
  2
33
 70
     0
 62
     7
  6
Continuous
370
    15
390
1D
  0
LAYER
  5
46
330
2
100
AcDbSymbolTableRecord
100
AcDbLayerTableRecord
  2
49
 70
     0
 62
     7
  6
Continuous
370
    15
390
1D
  0
LAYER
  5
47
330
2
100
AcDbSymbolTableRecord
100
AcDbLayerTableRecord
  2
実形
 70
     0
 62
     7
  6
Continuous
370
    18
390
1D
  0
ENDTAB
  0
TABLE
  2
STYLE
  5
3
330
0
100
AcDbSymbolTable
 70
     3
  0
STYLE
  5
17
330
3
100
AcDbSymbolTableRecord
100
AcDbTextStyleTableRecord
  2
Standard
 70
     0
 40
0.0
 41
1.0
 50
0.0
 71
     0
 42
0.0
  3
txt
  4
BIGFONT.SHX
  0
STYLE
  5
34
330
3
100
AcDbSymbolTableRecord
100
AcDbTextStyleTableRecord
  2
Arial
 70
     0
 40
0.0
 41
1.0
 50
0.0
 71
     0
 42
0.0
  3
Arial
  4

1001
ACAD
1000
Arial
1071
        0
  0
STYLE
  5
35
330
3
100
AcDbSymbolTableRecord
100
AcDbTextStyleTableRecord
  2
ＭＳ ゴシック
 70
     0
 40
0.0
 41
1.0
 50
0.0
 71
     0
 42
0.0
  3
ＭＳ ゴシック
  4

1001
ACAD
1000
ＭＳ ゴシック
1071
        0
  0
ENDTAB
  0
TABLE
  2
VIEW
  5
5
330
0
100
AcDbSymbolTable
 70
     0
  0
ENDTAB
  0
TABLE
  2
UCS
  5
6
330
0
100
AcDbSymbolTable
 70
     0
  0
ENDTAB
  0
TABLE
  2
APPID
  5
8
330
0
100
AcDbSymbolTable
 70
     1
  0
APPID
  5
16
330
8
100
AcDbSymbolTableRecord
100
AcDbRegAppTableRecord
  2
ACAD
 70
     0
  0
ENDTAB
  0
TABLE
  2
DIMSTYLE
  5
9
330
0
100
AcDbSymbolTable
 70
     3
100
AcDbDimStyleTable
 71
     0
  0
DIMSTYLE
105
18
330
9
100
AcDbSymbolTableRecord
100
AcDbDimStyleTableRecord
  2
Standard
 70
     0
340
17
  0
DIMSTYLE
105
51
102
{ACAD_REACTORS
330
12E
330
12F
330
130
330
131
330
132
330
133
330
13B
330
145
330
146
330
147
330
148
330
149
330
15A
330
18D
330
18E
330
18F
102
}
330
9
100
AcDbSymbolTableRecord
100
AcDbDimStyleTableRecord
  2
Arch
 70
     0
  3
<>
  4
[]
 41
22.4482421875
 42
15.875
 43
10.16
 44
31.75
 46
1.587499999999999
 73
     0
 74
     0
 77
     1
 78
    11
140
24.4326171875
141
0.0
143
0.0393700787401575
146
0.8
147
1.587499999999999
171
     3
172
     1
174
     1
179
     2
271
     1
272
     1
273
     4
276
     2
284
    11
285
    15
286
    15
340
35
341
4D
342
48
  0
DIMSTYLE
105
1E0
330
9
100
AcDbSymbolTableRecord
100
AcDbDimStyleTableRecord
  2
ISO-25
 70
     0
 41
35.0
 42
65.0
 43
3.75
 44
0.0
 73
     0
 74
     0
 77
     1
 78
     8
140
25.0
141
2.5
143
0.03937007874016
147
6.25
171
     3
172
     1
271
     2
272
     2
274
     3
283
     0
284
     8
340
17
341
1DA
342
1D6
371
    15
372
    15
  0
ENDTAB
  0
TABLE
  2
BLOCK_RECORD
  5
1
330
0
100
AcDbSymbolTable
 70
    21
  0
BLOCK_RECORD
  5
A
330
1
100
AcDbSymbolTableRecord
100
AcDbBlockTableRecord
  2
*MODEL_SPACE
340
20
  0
BLOCK_RECORD
  5
B
330
1
100
AcDbSymbolTableRecord
100
AcDbBlockTableRecord
  2
*PAPER_SPACE
340
21
  0
BLOCK_RECORD
  5
48
330
1
100
AcDbSymbolTableRecord
100
AcDbBlockTableRecord
  2
VW_SLASH
340
0
  0
BLOCK_RECORD
  5
4D
330
1
100
AcDbSymbolTableRecord
100
AcDbBlockTableRecord
  2
VW_FILLEDARROW
340
0
  0
BLOCK_RECORD
  5
24
330
1
100
AcDbSymbolTableRecord
100
AcDbBlockTableRecord
  2
*D2
340
0
  0
BLOCK_RECORD
  5
25
330
1
100
AcDbSymbolTableRecord
100
AcDbBlockTableRecord
  2
*D3
340
0
  0
BLOCK_RECORD
  5
26
330
1
100
AcDbSymbolTableRecord
100
AcDbBlockTableRecord
  2
*D4
340
0
  0
BLOCK_RECORD
  5
27
330
1
100
AcDbSymbolTableRecord
100
AcDbBlockTableRecord
  2
*D5
340
0
  0
BLOCK_RECORD
  5
28
330
1
100
AcDbSymbolTableRecord
100
AcDbBlockTableRecord
  2
*D6
340
0
  0
BLOCK_RECORD
  5
29
330
1
100
AcDbSymbolTableRecord
100
AcDbBlockTableRecord
  2
*D7
340
0
  0
BLOCK_RECORD
  5
2A
330
1
100
AcDbSymbolTableRecord
100
AcDbBlockTableRecord
  2
*D8
340
0
  0
BLOCK_RECORD
  5
2B
330
1
100
AcDbSymbolTableRecord
100
AcDbBlockTableRecord
  2
*D9
340
0
  0
BLOCK_RECORD
  5
2C
330
1
100
AcDbSymbolTableRecord
100
AcDbBlockTableRecord
  2
*D10
340
0
  0
BLOCK_RECORD
  5
2D
330
1
100
AcDbSymbolTableRecord
100
AcDbBlockTableRecord
  2
*D11
340
0
  0
BLOCK_RECORD
  5
2E
330
1
100
AcDbSymbolTableRecord
100
AcDbBlockTableRecord
  2
*D12
340
0
  0
BLOCK_RECORD
  5
2F
330
1
100
AcDbSymbolTableRecord
100
AcDbBlockTableRecord
  2
*D13
340
0
  0
BLOCK_RECORD
  5
30
330
1
100
AcDbSymbolTableRecord
100
AcDbBlockTableRecord
  2
*D14
340
0
  0
BLOCK_RECORD
  5
31
330
1
100
AcDbSymbolTableRecord
100
AcDbBlockTableRecord
  2
*D15
340
0
  0
BLOCK_RECORD
  5
32
330
1
100
AcDbSymbolTableRecord
100
AcDbBlockTableRecord
  2
*D16
340
0
  0
BLOCK_RECORD
  5
33
330
1
100
AcDbSymbolTableRecord
100
AcDbBlockTableRecord
  2
*D17
340
0
  0
BLOCK_RECORD
  5
1D6
330
1
100
AcDbSymbolTableRecord
100
AcDbBlockTableRecord
  2
_DotSmall
340
0
  0
BLOCK_RECORD
  5
1DA
330
1
100
AcDbSymbolTableRecord
100
AcDbBlockTableRecord
  2
_Open30
340
0
  0
ENDTAB
  0
ENDSEC
  0
SECTION
  2
BLOCKS
  0
BLOCK
  5
D
330
A
100
AcDbEntity
  8
0
100
AcDbBlockBegin
  2
*MODEL_SPACE
 70
     0
 10
0.0
 20
0.0
 30
0.0
  3
*MODEL_SPACE
  1

  0
ENDBLK
  5
E
330
A
100
AcDbEntity
  8
0
100
AcDbBlockEnd
  0
BLOCK
  5
F
330
B
100
AcDbEntity
 67
     1
  8
0
100
AcDbBlockBegin
  2
*PAPER_SPACE
 70
     0
 10
0.0
 20
0.0
 30
0.0
  3
*PAPER_SPACE
  1

  0
ENDBLK
  5
10
330
B
100
AcDbEntity
 67
     1
  8
0
100
AcDbBlockEnd
  0
BLOCK
  5
49
330
48
100
AcDbEntity
  8
0
  6
ByBlock
 62
     0
370
    -2
100
AcDbBlockBegin
  2
VW_SLASH
 70
     0
 10
0.0
 20
0.0
 30
0.0
  3
VW_SLASH
  1

  0
LINE
  5
4A
330
48
100
AcDbEntity
  8
0
  6
ByBlock
 62
     0
370
    -2
100
AcDbLine
 10
0.0
 20
0.0
 30
0.0
 11
-1.0
 21
0.0
 31
0.0
  0
LINE
  5
4B
330
48
100
AcDbEntity
  8
0
  6
ByBlock
 62
     0
370
    20
100
AcDbLine
 10
-0.4987813153181721
 20
-0.4987813153181719
 30
0.0
 11
0.4987813153181721
 21
0.4987813153181719
 31
0.0
  0
ENDBLK
  5
4C
330
48
100
AcDbEntity
  8
0
100
AcDbBlockEnd
  0
BLOCK
  5
4E
330
4D
100
AcDbEntity
  8
0
  6
ByBlock
 62
     0
370
    -2
100
AcDbBlockBegin
  2
VW_FILLEDARROW
 70
     0
 10
0.0
 20
0.0
 30
0.0
  3
VW_FILLEDARROW
  1

  0
SOLID
  5
4F
330
4D
100
AcDbEntity
  8
0
 62
     0
370
    -2
100
AcDbTrace
 10
0.0
 20
0.0
 30
0.0
 11
-1.4107666015625
 21
-0.3780137715974714
 31
0.0
 12
-1.4107666015625
 22
0.3780137715974717
 32
0.0
 13
-1.4107666015625
 23
0.3780137715974717
 33
0.0
  0
ENDBLK
  5
50
330
4D
100
AcDbEntity
  8
0
100
AcDbBlockEnd
  0
BLOCK
  5
52
330
24
100
AcDbEntity
  8
寸法
100
AcDbBlockBegin
  2
*D2
 70
     1
 10
0.0
 20
0.0
 30
0.0
  3
*D2
  1

  0
LINE
  5
53
330
24
100
AcDbEntity
  8
寸法
  6
Continuous
 62
     0
370
    -2
100
AcDbLine
 10
60.0
 20
1240.875
 30
0.0
 11
60.0
 21
1649.13787472012
 31
0.0
  0
LINE
  5
54
330
24
100
AcDbEntity
  8
寸法
  6
Continuous
 62
     0
370
    -2
100
AcDbLine
 10
1080.0
 20
1240.875
 30
0.0
 11
1080.0
 21
1649.13787472012
 31
0.0
  0
LINE
  5
55
330
24
100
AcDbEntity
  8
寸法
  6
Continuous
 62
     0
370
    -2
100
AcDbLine
 10
44.125
 20
1617.38787472012
 30
0.0
 11
60.0
 21
1617.38787472012
 31
0.0
  0
LINE
  5
56
330
24
100
AcDbEntity
  8
寸法
  6
Continuous
 62
     0
370
    -2
100
AcDbLine
 10
1080.0
 20
1617.38787472012
 30
0.0
 11
1095.875
 21
1617.38787472012
 31
0.0
  0
LINE
  5
57
330
24
100
AcDbEntity
  8
寸法
  6
Continuous
 62
     0
370
    -2
100
AcDbLine
 10
60.0
 20
1617.38787472012
 30
0.0
 11
1080.0
 21
1617.38787472012
 31
0.0
  0
LINE
  5
58
330
24
100
AcDbEntity
  8
寸法
  6
Continuous
 62
     0
370
    20
100
AcDbLine
 10
71.22532015133652
 20
1628.613194871456
 30
0.0
 11
48.77467984866347
 21
1606.162554568783
 31
0.0
  0
LINE
  5
59
330
24
100
AcDbEntity
  8
寸法
  6
Continuous
 62
     0
370
    20
100
AcDbLine
 10
1068.774679848663
 20
1606.162554568783
 30
0.0
 11
1091.225320151336
 21
1628.613194871456
 31
0.0
  0
WIPEOUT
  5
5A
330
24
100
AcDbEntity
  8
寸法
  6
Continuous
 62
     0
 92
      276
310
1401000003000000800000000A0000000000000000D2804071D7072F0D859940000000000000000000000000000000000000000000000000000000000000F03F000000000000F03F000000000000000000000000000000000000000000000000000000000000F03F000000000000000041634462576970656F757420285769
310
70654F7574290000008400000006000000050000000000000000D2804071D7072F0D85994000000000000000000000000000CE824071D7072F0D85994000000000000000000000000000CE824071D7072F0D049A4000000000000000000000000000D2804071D7072F0D049A4000000000000000000000000000D2804071D7
310
072F0D85994000000000000000000800000015000000
370
    -2
100
AcDbWipeout
 90
        0
 10
538.25
 20
1994.402554942768
 30
0.0
 11
63.5
 21
0.0
 31
0.0
 12
0.0
 22
63.5
 32
0.0
 13
1.0
 23
1.0
340
0
 70
     7
280
     1
281
    50
282
    50
283
     0
360
0
 71
     2
 91
        5
 14
-0.5
 24
6.187239058624376
 14
0.5
 24
6.187239058624376
 14
0.5
 24
5.687239058624376
 14
-0.5
 24
5.687239058624376
 14
-0.5
 24
6.187239058624376
  0
MTEXT
  5
5B
330
24
100
AcDbEntity
  8
寸法
 62
     0
100
AcDbMText
 10
538.25
 20
1662.14049190762
 30
0.0
 40
24.4326171875
 41
0.0
 71
     1
 72
     1
  1
1020
  7
ＭＳ ゴシック
 73
     1
 44
0.7828267384257845
1001
ACAD
1000
MTEXTBEGIN
1070
    73
1070
     1
1070
    44
1040
0.7828267384257845
1070
    74
1070
     0
1000
MTEXTEND
  0
POINT
  5
5C
330
24
100
AcDbEntity
  8
Defpoints
 62
     0
370
     0
100
AcDbPoint
 10
1080.0
 20
1225.0
 30
0.0
  0
POINT
  5
5D
330
24
100
AcDbEntity
  8
Defpoints
 62
     0
370
     0
100
AcDbPoint
 10
60.0
 20
1225.0
 30
0.0
  0
POINT
  5
5E
330
24
100
AcDbEntity
  8
Defpoints
 62
     0
370
     0
100
AcDbPoint
 10
60.0
 20
1617.38787472012
 30
0.0
  0
ENDBLK
  5
5F
330
24
100
AcDbEntity
  8
寸法
100
AcDbBlockEnd
  0
BLOCK
  5
60
330
25
100
AcDbEntity
  8
寸法
100
AcDbBlockBegin
  2
*D3
 70
     1
 10
0.0
 20
0.0
 30
0.0
  3
*D3
  1

  0
LINE
  5
61
330
25
100
AcDbEntity
  8
寸法
  6
Continuous
 62
     0
370
    -2
100
AcDbLine
 10
75.0
 20
1185.875
 30
0.0
 11
75.0
 21
1596.75
 31
0.0
  0
LINE
  5
62
330
25
100
AcDbEntity
  8
寸法
  6
Continuous
 62
     0
370
    -2
100
AcDbLine
 10
1065.0
 20
1185.875
 30
0.0
 11
1065.0
 21
1596.75
 31
0.0
  0
LINE
  5
63
330
25
100
AcDbEntity
  8
寸法
  6
Continuous
 62
     0
370
    -2
100
AcDbLine
 10
59.125
 20
1565.0
 30
0.0
 11
75.0
 21
1565.0
 31
0.0
  0
LINE
  5
64
330
25
100
AcDbEntity
  8
寸法
  6
Continuous
 62
     0
370
    -2
100
AcDbLine
 10
1065.0
 20
1565.0
 30
0.0
 11
1080.875
 21
1565.0
 31
0.0
  0
LINE
  5
65
330
25
100
AcDbEntity
  8
寸法
  6
Continuous
 62
     0
370
    -2
100
AcDbLine
 10
75.0
 20
1565.0
 30
0.0
 11
1065.0
 21
1565.0
 31
0.0
  0
LINE
  5
66
330
25
100
AcDbEntity
  8
寸法
  6
Continuous
 62
     0
370
    20
100
AcDbLine
 10
86.22532015133641
 20
1576.225320151336
 30
0.0
 11
63.77467984866347
 21
1553.774679848664
 31
0.0
  0
LINE
  5
67
330
25
100
AcDbEntity
  8
寸法
  6
Continuous
 62
     0
370
    20
100
AcDbLine
 10
1053.774679848664
 20
1553.774679848664
 30
0.0
 11
1076.225320151336
 21
1576.225320151336
 31
0.0
  0
WIPEOUT
  5
68
330
25
100
AcDbEntity
  8
寸法
  6
Continuous
 62
     0
 92
      276
310
1401000003000000800000000A000000E4381EFF7F1181400000000080B39840000000000000000000000000000000000000000000000000000000000000F03F000000000000F03F000000000000000000000000000000000000000000000000000000000000F03F000000000000000041634462576970656F757420285769
310
70654F757429000000840000000600000005000000E4381EFF7F1181400000000080B3984000000000000000001CC7E100808E82400000000080B3984000000000000000001CC7E100808E824000000000803299400000000000000000E4381EFF7F11814000000000803299400000000000000000E4381EFF7F1181400000
310
000080B3984000000000000000000800000015000000
370
    -2
100
AcDbWipeout
 90
        0
 10
546.1874983178245
 20
1942.014680222648
 30
0.0
 11
47.62500336435107
 21
0.0
 31
0.0
 12
0.0
 22
47.62500336435107
 32
0.0
 13
1.0
 23
1.0
340
0
 70
     7
280
     1
281
    50
282
    50
283
     0
360
0
 71
     2
 91
        5
 14
-0.5
 24
8.082984875817842
 14
0.5
 24
8.082984875817842
 14
0.5
 24
7.416318256246201
 14
-0.5
 24
7.416318256246201
 14
-0.5
 24
8.082984875817842
  0
MTEXT
  5
69
330
25
100
AcDbEntity
  8
寸法
 62
     0
100
AcDbMText
 10
546.1874983178245
 20
1609.7526171875
 30
0.0
 40
24.4326171875
 41
0.0
 71
     1
 72
     1
  1
990
  7
ＭＳ ゴシック
 73
     1
 44
0.7828267384257845
1001
ACAD
1000
MTEXTBEGIN
1070
    73
1070
     1
1070
    44
1040
0.7828267384257845
1070
    74
1070
     0
1000
MTEXTEND
  0
POINT
  5
6A
330
25
100
AcDbEntity
  8
Defpoints
 62
     0
370
     0
100
AcDbPoint
 10
1065.0
 20
1170.0
 30
0.0
  0
POINT
  5
6B
330
25
100
AcDbEntity
  8
Defpoints
 62
     0
370
     0
100
AcDbPoint
 10
75.0
 20
1170.0
 30
0.0
  0
POINT
  5
6C
330
25
100
AcDbEntity
  8
Defpoints
 62
     0
370
     0
100
AcDbPoint
 10
75.0
 20
1565.0
 30
0.0
  0
ENDBLK
  5
6D
330
25
100
AcDbEntity
  8
寸法
100
AcDbBlockEnd
  0
BLOCK
  5
6E
330
26
100
AcDbEntity
  8
寸法
100
AcDbBlockBegin
  2
*D4
 70
     1
 10
0.0
 20
0.0
 30
0.0
  3
*D4
  1

  0
LINE
  5
6F
330
26
100
AcDbEntity
  8
寸法
  6
Continuous
 62
     0
370
    -2
100
AcDbLine
 10
105.0
 20
1155.875
 30
0.0
 11
105.0
 21
1546.75
 31
0.0
  0
LINE
  5
70
330
26
100
AcDbEntity
  8
寸法
  6
Continuous
 62
     0
370
    -2
100
AcDbLine
 10
1035.0
 20
1155.875
 30
0.0
 11
1035.0
 21
1546.75
 31
0.0
  0
LINE
  5
71
330
26
100
AcDbEntity
  8
寸法
  6
Continuous
 62
     0
370
    -2
100
AcDbLine
 10
89.12499999999999
 20
1515.0
 30
0.0
 11
105.0
 21
1515.0
 31
0.0
  0
LINE
  5
72
330
26
100
AcDbEntity
  8
寸法
  6
Continuous
 62
     0
370
    -2
100
AcDbLine
 10
1035.0
 20
1515.0
 30
0.0
 11
1050.875
 21
1515.0
 31
0.0
  0
LINE
  5
73
330
26
100
AcDbEntity
  8
寸法
  6
Continuous
 62
     0
370
    -2
100
AcDbLine
 10
105.0
 20
1515.0
 30
0.0
 11
1035.0
 21
1515.0
 31
0.0
  0
LINE
  5
74
330
26
100
AcDbEntity
  8
寸法
  6
Continuous
 62
     0
370
    20
100
AcDbLine
 10
116.2253201513364
 20
1526.225320151336
 30
0.0
 11
93.7746798486636
 21
1503.774679848663
 31
0.0
  0
LINE
  5
75
330
26
100
AcDbEntity
  8
寸法
  6
Continuous
 62
     0
370
    20
100
AcDbLine
 10
1023.774679848663
 20
1503.774679848663
 30
0.0
 11
1046.225320151336
 21
1526.225320151336
 31
0.0
  0
WIPEOUT
  5
76
330
26
100
AcDbEntity
  8
寸法
  6
Continuous
 62
     0
 92
      276
310
1401000003000000800000000A000000E4381EFF7F1181400000000080EB9740000000000000000000000000000000000000000000000000000000000000F03F000000000000F03F000000000000000000000000000000000000000000000000000000000000F03F000000000000000041634462576970656F757420285769
310
70654F757429000000840000000600000005000000E4381EFF7F1181400000000080EB974000000000000000001CC7E100808E82400000000080EB974000000000000000001CC7E100808E824000000000806A98400000000000000000E4381EFF7F11814000000000806A98400000000000000000E4381EFF7F1181400000
310
000080EB974000000000000000000800000015000000
370
    -2
100
AcDbWipeout
 90
        0
 10
546.1874983178245
 20
1892.014680222648
 30
0.0
 11
47.62500336435107
 21
0.0
 31
0.0
 12
0.0
 22
47.62500336435107
 32
0.0
 13
1.0
 23
1.0
340
0
 70
     7
280
     1
281
    50
282
    50
283
     0
360
0
 71
     2
 91
        5
 14
-0.5
 24
8.082984875817842
 14
0.5
 24
8.082984875817842
 14
0.5
 24
7.416318256246201
 14
-0.5
 24
7.416318256246201
 14
-0.5
 24
8.082984875817842
  0
MTEXT
  5
77
330
26
100
AcDbEntity
  8
寸法
 62
     0
100
AcDbMText
 10
546.1874983178245
 20
1559.7526171875
 30
0.0
 40
24.4326171875
 41
0.0
 71
     1
 72
     1
  1
930
  7
ＭＳ ゴシック
 73
     1
 44
0.7828267384257845
1001
ACAD
1000
MTEXTBEGIN
1070
    73
1070
     1
1070
    44
1040
0.7828267384257845
1070
    74
1070
     0
1000
MTEXTEND
  0
POINT
  5
78
330
26
100
AcDbEntity
  8
Defpoints
 62
     0
370
     0
100
AcDbPoint
 10
1035.0
 20
1140.0
 30
0.0
  0
POINT
  5
79
330
26
100
AcDbEntity
  8
Defpoints
 62
     0
370
     0
100
AcDbPoint
 10
105.0
 20
1140.0
 30
0.0
  0
POINT
  5
7A
330
26
100
AcDbEntity
  8
Defpoints
 62
     0
370
     0
100
AcDbPoint
 10
105.0
 20
1515.0
 30
0.0
  0
ENDBLK
  5
7B
330
26
100
AcDbEntity
  8
寸法
100
AcDbBlockEnd
  0
BLOCK
  5
7C
330
27
100
AcDbEntity
  8
寸法
100
AcDbBlockBegin
  2
*D5
 70
     1
 10
0.0
 20
0.0
 30
0.0
  3
*D5
  1

  0
LINE
  5
7D
330
27
100
AcDbEntity
  8
寸法
  6
Continuous
 62
     0
370
    -2
100
AcDbLine
 10
154.125
 20
1290.0
 30
0.0
 11
-216.75
 21
1290.0
 31
0.0
  0
LINE
  5
7E
330
27
100
AcDbEntity
  8
寸法
  6
Continuous
 62
     0
370
    -2
100
AcDbLine
 10
154.125
 20
818.0
 30
0.0
 11
-216.75
 21
818.0
 31
0.0
  0
LINE
  5
7F
330
27
100
AcDbEntity
  8
寸法
  6
Continuous
 62
     0
370
    -2
100
AcDbLine
 10
-185.0
 20
1305.875
 30
0.0
 11
-185.0
 21
1290.0
 31
0.0
  0
LINE
  5
80
330
27
100
AcDbEntity
  8
寸法
  6
Continuous
 62
     0
370
    -2
100
AcDbLine
 10
-185.0
 20
818.0
 30
0.0
 11
-185.0
 21
802.125
 31
0.0
  0
LINE
  5
81
330
27
100
AcDbEntity
  8
寸法
  6
Continuous
 62
     0
370
    -2
100
AcDbLine
 10
-185.0
 20
1290.0
 30
0.0
 11
-185.0
 21
818.0
 31
0.0
  0
LINE
  5
82
330
27
100
AcDbEntity
  8
寸法
  6
Continuous
 62
     0
370
    20
100
AcDbLine
 10
-173.7746798486635
 20
1278.774679848663
 30
0.0
 11
-196.2253201513365
 21
1301.225320151336
 31
0.0
  0
LINE
  5
83
330
27
100
AcDbEntity
  8
寸法
  6
Continuous
 62
     0
370
    20
100
AcDbLine
 10
-196.2253201513365
 20
829.2253201513364
 30
0.0
 11
-173.7746798486635
 21
806.7746798486636
 31
0.0
  0
WIPEOUT
  5
84
330
27
100
AcDbEntity
  8
寸法
  6
Continuous
 62
     0
 92
      276
310
1401000003000000800000000A0000000000000000146DC0711C8FFFBF189040000000000000000000000000000000000000000000000000000000000000F03F000000000000F03F000000000000000000000000000000000000000000000000000000000000F03F000000000000000041634462576970656F757420285769
310
70654F7574290000008400000006000000050000000000000000146DC0711C8FFFBF189040000000000000000000000000001C69C0711C8FFFBF189040000000000000000000000000001C69C08DE3700040D7904000000000000000000000000000146DC08DE3700040D7904000000000000000000000000000146DC0711C
310
8FFFBF18904000000000000000000800000015000000
370
    -2
100
AcDbWipeout
 90
        0
 10
-232.625
 20
1391.327178540472
 30
0.0
 11
47.62500336435107
 21
0.0
 31
0.0
 12
0.0
 22
47.62500336435107
 32
0.0
 13
1.0
 23
1.0
340
0
 70
     7
280
     1
281
    50
282
    50
283
     0
360
0
 71
     2
 91
        5
 14
0.1666666195716419
 24
8.082984875817837
 14
0.1666666195716419
 24
7.082984875817841
 14
-0.5
 24
7.082984875817841
 14
-0.5
 24
8.082984875817837
 14
0.1666666195716419
 24
8.082984875817837
  0
MTEXT
  5
85
330
27
100
AcDbEntity
  8
寸法
 62
     0
100
AcDbMText
 10
-229.7526171874999
 20
1030.187498317824
 30
0.0
 40
24.4326171875
 41
0.0
 71
     1
 72
     1
  1
472
  7
ＭＳ ゴシック
 11
0.0
 21
1.0
 31
0.0
 73
     1
 44
0.7828267384257845
1001
ACAD
1000
MTEXTBEGIN
1070
    73
1070
     1
1070
    44
1040
0.7828267384257845
1070
    74
1070
     0
1000
MTEXTEND
  0
POINT
  5
86
330
27
100
AcDbEntity
  8
Defpoints
 62
     0
370
     0
100
AcDbPoint
 10
170.0
 20
818.0
 30
0.0
  0
POINT
  5
87
330
27
100
AcDbEntity
  8
Defpoints
 62
     0
370
     0
100
AcDbPoint
 10
170.0
 20
1290.0
 30
0.0
  0
POINT
  5
88
330
27
100
AcDbEntity
  8
Defpoints
 62
     0
370
     0
100
AcDbPoint
 10
-185.0
 20
1290.0
 30
0.0
  0
ENDBLK
  5
89
330
27
100
AcDbEntity
  8
寸法
100
AcDbBlockEnd
  0
BLOCK
  5
8A
330
28
100
AcDbEntity
  8
寸法
100
AcDbBlockBegin
  2
*D6
 70
     1
 10
0.0
 20
0.0
 30
0.0
  3
*D6
  1

  0
LINE
  5
8B
330
28
100
AcDbEntity
  8
寸法
  6
Continuous
 62
     0
370
    -2
100
AcDbLine
 10
223.9820987306957
 20
1275.0
 30
0.0
 11
-161.8929012693042
 21
1275.0
 31
0.0
  0
LINE
  5
8C
330
28
100
AcDbEntity
  8
寸法
  6
Continuous
 62
     0
370
    -2
100
AcDbLine
 10
223.9820987306957
 20
833.0
 30
0.0
 11
-161.8929012693042
 21
833.0
 31
0.0
  0
LINE
  5
8D
330
28
100
AcDbEntity
  8
寸法
  6
Continuous
 62
     0
370
    -2
100
AcDbLine
 10
-130.1429012693043
 20
1290.875
 30
0.0
 11
-130.1429012693043
 21
1275.0
 31
0.0
  0
LINE
  5
8E
330
28
100
AcDbEntity
  8
寸法
  6
Continuous
 62
     0
370
    -2
100
AcDbLine
 10
-130.1429012693043
 20
833.0
 30
0.0
 11
-130.1429012693043
 21
817.125
 31
0.0
  0
LINE
  5
8F
330
28
100
AcDbEntity
  8
寸法
  6
Continuous
 62
     0
370
    -2
100
AcDbLine
 10
-130.1429012693043
 20
1275.0
 30
0.0
 11
-130.1429012693043
 21
833.0
 31
0.0
  0
LINE
  5
90
330
28
100
AcDbEntity
  8
寸法
  6
Continuous
 62
     0
370
    20
100
AcDbLine
 10
-118.9175811179677
 20
1263.774679848663
 30
0.0
 11
-141.3682214206408
 21
1286.225320151336
 31
0.0
  0
LINE
  5
91
330
28
100
AcDbEntity
  8
寸法
  6
Continuous
 62
     0
370
    20
100
AcDbLine
 10
-141.3682214206408
 20
844.2253201513361
 30
0.0
 11
-118.9175811179677
 21
821.7746798486636
 31
0.0
  0
WIPEOUT
  5
92
330
28
100
AcDbEntity
  8
寸法
  6
Continuous
 62
     0
 92
      276
310
1401000003000000800000000A00000001C7AEA5923866C0711C8FFFBF189040000000000000000000000000000000000000000000000000000000000000F03F000000000000F03F000000000000000000000000000000000000000000000000000000000000F03F000000000000000041634462576970656F757420285769
310
70654F75742900000084000000060000000500000001C7AEA5923866C0711C8FFFBF189040000000000000000001C7AEA5924062C0711C8FFFBF189040000000000000000001C7AEA5924062C08DE3700040D79040000000000000000001C7AEA5923866C08DE3700040D79040000000000000000001C7AEA5923866C0711C
310
8FFFBF18904000000000000000000800000015000000
370
    -2
100
AcDbWipeout
 90
        0
 10
-177.7679012693043
 20
1391.327178540472
 30
0.0
 11
47.62500336435107
 21
0.0
 31
0.0
 12
0.0
 22
47.62500336435107
 32
0.0
 13
1.0
 23
1.0
340
0
 70
     7
280
     1
281
    50
282
    50
283
     0
360
0
 71
     2
 91
        5
 14
0.1666666195716419
 24
8.082984875817837
 14
0.1666666195716419
 24
7.082984875817841
 14
-0.5
 24
7.082984875817841
 14
-0.5
 24
8.082984875817837
 14
0.1666666195716419
 24
8.082984875817837
  0
MTEXT
  5
93
330
28
100
AcDbEntity
  8
寸法
 62
     0
100
AcDbMText
 10
-174.8955184568042
 20
1030.187498317824
 30
0.0
 40
24.4326171875
 41
0.0
 71
     1
 72
     1
  1
442
  7
ＭＳ ゴシック
 11
0.0
 21
1.0
 31
0.0
 73
     1
 44
0.7828267384257845
1001
ACAD
1000
MTEXTBEGIN
1070
    73
1070
     1
1070
    44
1040
0.7828267384257845
1070
    74
1070
     0
1000
MTEXTEND
  0
POINT
  5
94
330
28
100
AcDbEntity
  8
Defpoints
 62
     0
370
     0
100
AcDbPoint
 10
239.8570987306957
 20
833.0
 30
0.0
  0
POINT
  5
95
330
28
100
AcDbEntity
  8
Defpoints
 62
     0
370
     0
100
AcDbPoint
 10
239.8570987306957
 20
1275.0
 30
0.0
  0
POINT
  5
96
330
28
100
AcDbEntity
  8
Defpoints
 62
     0
370
     0
100
AcDbPoint
 10
-130.1429012693043
 20
1275.0
 30
0.0
  0
ENDBLK
  5
97
330
28
100
AcDbEntity
  8
寸法
100
AcDbBlockEnd
  0
BLOCK
  5
98
330
29
100
AcDbEntity
  8
寸法
100
AcDbBlockBegin
  2
*D7
 70
     1
 10
0.0
 20
0.0
 30
0.0
  3
*D7
  1

  0
LINE
  5
99
330
29
100
AcDbEntity
  8
寸法
  6
Continuous
 62
     0
370
    -2
100
AcDbLine
 10
60.0
 20
874.125
 30
0.0
 11
60.0
 21
556.2499999999544
 31
0.0
  0
LINE
  5
9A
330
29
100
AcDbEntity
  8
寸法
  6
Continuous
 62
     0
370
    -2
100
AcDbLine
 10
570.0
 20
790.209945435796
 30
0.0
 11
570.0
 21
556.2499999999544
 31
0.0
  0
LINE
  5
9B
330
29
100
AcDbEntity
  8
寸法
  6
Continuous
 62
     0
370
    -2
100
AcDbLine
 10
44.125
 20
587.9999999999544
 30
0.0
 11
60.0
 21
587.9999999999544
 31
0.0
  0
LINE
  5
9C
330
29
100
AcDbEntity
  8
寸法
  6
Continuous
 62
     0
370
    -2
100
AcDbLine
 10
570.0
 20
587.9999999999544
 30
0.0
 11
585.8749999999998
 21
587.9999999999544
 31
0.0
  0
LINE
  5
9D
330
29
100
AcDbEntity
  8
寸法
  6
Continuous
 62
     0
370
    -2
100
AcDbLine
 10
60.0
 20
587.9999999999544
 30
0.0
 11
570.0
 21
587.9999999999544
 31
0.0
  0
LINE
  5
9E
330
29
100
AcDbEntity
  8
寸法
  6
Continuous
 62
     0
370
    20
100
AcDbLine
 10
71.22532015133652
 20
599.2253201512907
 30
0.0
 11
48.77467984866347
 21
576.774679848618
 31
0.0
  0
LINE
  5
9F
330
29
100
AcDbEntity
  8
寸法
  6
Continuous
 62
     0
370
    20
100
AcDbLine
 10
558.7746798486636
 20
576.774679848618
 30
0.0
 11
581.2253201513364
 21
599.2253201512907
 31
0.0
  0
WIPEOUT
  5
A0
330
29
100
AcDbEntity
  8
寸法
  6
Continuous
 62
     0
 92
      276
310
1401000003000000800000000A000000C8713CFEFF3272406EFEFFFFFFDE8240000000000000000000000000000000000000000000000000000000000000F03F000000000000F03F000000000000000000000000000000000000000000000000000000000000F03F000000000000000041634462576970656F757420285769
310
70654F757429000000840000000600000005000000C8713CFEFF3272406EFEFFFFFFDE824000000000000000003A8EC301002D75406EFEFFFFFFDE824000000000000000003A8EC301002D75406FFEFFFFFFDC83400000000000000000C8713CFEFF3272406FFEFFFFFFDC83400000000000000000C8713CFEFF3272406EFE
310
FFFFFFDE824000000000000000000800000015000000
370
    -2
100
AcDbWipeout
 90
        0
 10
291.1874983178245
 20
965.0146802226023
 30
0.0
 11
47.62500336435107
 21
0.0
 31
0.0
 12
0.0
 22
47.62500336435107
 32
0.0
 13
1.0
 23
1.0
340
0
 70
     7
280
     1
281
    50
282
    50
283
     0
360
0
 71
     2
 91
        5
 14
-0.5
 24
8.082984875817842
 14
0.5
 24
8.082984875817842
 14
0.5
 24
7.416318256246199
 14
-0.5
 24
7.416318256246199
 14
-0.5
 24
8.082984875817842
  0
MTEXT
  5
A1
330
29
100
AcDbEntity
  8
寸法
 62
     0
100
AcDbMText
 10
291.1874983178245
 20
632.7526171874545
 30
0.0
 40
24.4326171875
 41
0.0
 71
     1
 72
     1
  1
510
  7
ＭＳ ゴシック
 73
     1
 44
0.7828267384257845
1001
ACAD
1000
MTEXTBEGIN
1070
    73
1070
     1
1070
    44
1040
0.7828267384257845
1070
    74
1070
     0
1000
MTEXTEND
  0
POINT
  5
A2
330
29
100
AcDbEntity
  8
Defpoints
 62
     0
370
     0
100
AcDbPoint
 10
570.0
 20
806.084945435796
 30
0.0
  0
POINT
  5
A3
330
29
100
AcDbEntity
  8
Defpoints
 62
     0
370
     0
100
AcDbPoint
 10
60.0
 20
890.0
 30
0.0
  0
POINT
  5
A4
330
29
100
AcDbEntity
  8
Defpoints
 62
     0
370
     0
100
AcDbPoint
 10
60.0
 20
587.9999999999544
 30
0.0
  0
ENDBLK
  5
A5
330
29
100
AcDbEntity
  8
寸法
100
AcDbBlockEnd
  0
BLOCK
  5
A6
330
2A
100
AcDbEntity
  8
寸法
100
AcDbBlockBegin
  2
*D8
 70
     1
 10
0.0
 20
0.0
 30
0.0
  3
*D8
  1

  0
LINE
  5
A7
330
2A
100
AcDbEntity
  8
寸法
  6
Continuous
 62
     0
370
    -2
100
AcDbLine
 10
1500.0
 20
804.3589924303537
 30
0.0
 11
1500.0
 21
660.5
 31
0.0
  0
LINE
  5
A8
330
2A
100
AcDbEntity
  8
寸法
  6
Continuous
 62
     0
370
    -2
100
AcDbLine
 10
1515.0
 20
804.3589924303537
 30
0.0
 11
1515.0
 21
660.5
 31
0.0
  0
LINE
  5
A9
330
2A
100
AcDbEntity
  8
寸法
  6
Continuous
 62
     0
370
    -2
100
AcDbLine
 10
1484.125
 20
692.25
 30
0.0
 11
1500.0
 21
692.25
 31
0.0
  0
LINE
  5
AA
330
2A
100
AcDbEntity
  8
寸法
  6
Continuous
 62
     0
370
    -2
100
AcDbLine
 10
1515.0
 20
692.25
 30
0.0
 11
1530.875
 21
692.25
 31
0.0
  0
LINE
  5
AB
330
2A
100
AcDbEntity
  8
寸法
  6
Continuous
 62
     0
370
    -2
100
AcDbLine
 10
1500.0
 20
692.25
 30
0.0
 11
1442.25
 21
692.25
 31
0.0
  0
LINE
  5
AC
330
2A
100
AcDbEntity
  8
寸法
  6
Continuous
 62
     0
370
    -2
100
AcDbLine
 10
1500.0
 20
692.25
 30
0.0
 11
1515.0
 21
692.25
 31
0.0
  0
LINE
  5
AD
330
2A
100
AcDbEntity
  8
寸法
  6
Continuous
 62
     0
370
    20
100
AcDbLine
 10
1511.225320151336
 20
703.4753201513365
 30
0.0
 11
1488.774679848664
 21
681.0246798486636
 31
0.0
  0
LINE
  5
AE
330
2A
100
AcDbEntity
  8
寸法
  6
Continuous
 62
     0
370
    20
100
AcDbLine
 10
1503.774679848663
 20
681.0246798486636
 30
0.0
 11
1526.225320151336
 21
703.4753201513365
 31
0.0
  0
WIPEOUT
  5
AF
330
2A
100
AcDbEntity
  8
寸法
  6
Continuous
 62
     0
 92
      276
310
1401000003000000800000000A0000000000000000899640FEFFFFFFFF208640000000000000000000000000000000000000000000000000000000000000F03F000000000000F03F000000000000000000000000000000000000000000000000000000000000F03F000000000000000041634462576970656F757420285769
310
70654F7574290000008400000006000000050000000000000000899640FEFFFFFFFF20864000000000000000000000000000089740FEFFFFFFFF20864000000000000000000000000000089740FEFFFFFFFF1E874000000000000000000000000000899640FEFFFFFFFF1E874000000000000000000000000000899640FEFF
310
FFFFFF20864000000000000000000800000015000000
370
    -2
100
AcDbWipeout
 90
        0
 10
1442.25
 20
1069.264680222648
 30
0.0
 11
31.75
 21
0.0
 31
0.0
 12
0.0
 22
31.75
 32
0.0
 13
1.0
 23
1.0
340
0
 70
     7
280
     1
281
    50
282
    50
283
     0
360
0
 71
     2
 91
        5
 14
-0.5
 24
11.87447811724876
 14
0.5
 24
11.87447811724876
 14
0.5
 24
10.87447811724876
 14
-0.5
 24
10.87447811724876
 14
-0.5
 24
11.87447811724876
  0
MTEXT
  5
B0
330
2A
100
AcDbEntity
  8
寸法
 62
     0
100
AcDbMText
 10
1442.25
 20
737.0026171875
 30
0.0
 40
24.4326171875
 41
0.0
 71
     1
 72
     1
  1
15
  7
ＭＳ ゴシック
 73
     1
 44
0.7828267384257845
1001
ACAD
1000
MTEXTBEGIN
1070
    73
1070
     1
1070
    44
1040
0.7828267384257845
1070
    74
1070
     0
1000
MTEXTEND
  0
POINT
  5
B1
330
2A
100
AcDbEntity
  8
Defpoints
 62
     0
370
     0
100
AcDbPoint
 10
1515.0
 20
820.2339924303537
 30
0.0
  0
POINT
  5
B2
330
2A
100
AcDbEntity
  8
Defpoints
 62
     0
370
     0
100
AcDbPoint
 10
1500.0
 20
820.2339924303537
 30
0.0
  0
POINT
  5
B3
330
2A
100
AcDbEntity
  8
Defpoints
 62
     0
370
     0
100
AcDbPoint
 10
1500.0
 20
692.25
 30
0.0
  0
ENDBLK
  5
B4
330
2A
100
AcDbEntity
  8
寸法
100
AcDbBlockEnd
  0
BLOCK
  5
B5
330
2B
100
AcDbEntity
  8
寸法
100
AcDbBlockBegin
  2
*D9
 70
     1
 10
0.0
 20
0.0
 30
0.0
  3
*D9
  1

  0
LINE
  5
B6
330
2B
100
AcDbEntity
  8
寸法
  6
Continuous
 62
     0
370
    -2
100
AcDbLine
 10
1500.0
 20
1229.875
 30
0.0
 11
1500.0
 21
1399.007417636164
 31
0.0
  0
LINE
  5
B7
330
2B
100
AcDbEntity
  8
寸法
  6
Continuous
 62
     0
370
    -2
100
AcDbLine
 10
1710.0
 20
1229.875
 30
0.0
 11
1710.0
 21
1399.007417636164
 31
0.0
  0
LINE
  5
B8
330
2B
100
AcDbEntity
  8
寸法
  6
Continuous
 62
     0
370
    -2
100
AcDbLine
 10
1484.125
 20
1367.257417636164
 30
0.0
 11
1500.0
 21
1367.257417636164
 31
0.0
  0
LINE
  5
B9
330
2B
100
AcDbEntity
  8
寸法
  6
Continuous
 62
     0
370
    -2
100
AcDbLine
 10
1710.0
 20
1367.257417636164
 30
0.0
 11
1725.875
 21
1367.257417636164
 31
0.0
  0
LINE
  5
BA
330
2B
100
AcDbEntity
  8
寸法
  6
Continuous
 62
     0
370
    -2
100
AcDbLine
 10
1500.0
 20
1367.257417636164
 30
0.0
 11
1710.0
 21
1367.257417636164
 31
0.0
  0
LINE
  5
BB
330
2B
100
AcDbEntity
  8
寸法
  6
Continuous
 62
     0
370
    20
100
AcDbLine
 10
1511.225320151336
 20
1378.4827377875
 30
0.0
 11
1488.774679848664
 21
1356.032097484828
 31
0.0
  0
LINE
  5
BC
330
2B
100
AcDbEntity
  8
寸法
  6
Continuous
 62
     0
370
    20
100
AcDbLine
 10
1698.774679848663
 20
1356.032097484828
 30
0.0
 11
1721.225320151336
 21
1378.4827377875
 31
0.0
  0
WIPEOUT
  5
BD
330
2B
100
AcDbEntity
  8
寸法
  6
Continuous
 62
     0
 92
      276
310
1401000003000000800000000A000000E8378F5D6DC69840F4227D98879C9540000000000000000000000000000000000000000000000000000000000000F03F000000000000F03F000000000000000000000000000000000000000000000000000000000000F03F000000000000000041634462576970656F757420285769
310
70654F757429000000840000000600000005000000E8378F5D6DC69840F4227D98879C9540000000000000000005FF705EED849940F4227D98879C9540000000000000000005FF705EED849940F4227D98871B96400000000000000000E8378F5D6DC69840F4227D98871B96400000000000000000E8378F5D6DC69840F422
310
7D98879C954000000000000000000800000015000000
370
    -2
100
AcDbWipeout
 90
        0
 10
1585.606802213466
 20
1744.272097858812
 30
0.0
 11
47.62500336435102
 21
0.0
 31
0.0
 12
0.0
 22
47.62500336435102
 32
0.0
 13
1.0
 23
1.0
340
0
 70
     7
280
     1
281
    50
282
    50
283
     0
360
0
 71
     2
 91
        5
 14
-0.5
 24
8.082984875817848
 14
0.5000000000000036
 24
8.082984875817848
 14
0.5000000000000036
 24
7.416318256246206
 14
-0.5
 24
7.416318256246206
 14
-0.5
 24
8.082984875817848
  0
MTEXT
  5
BE
330
2B
100
AcDbEntity
  8
寸法
 62
     0
100
AcDbMText
 10
1585.606802213466
 20
1412.010034823664
 30
0.0
 40
24.4326171875
 41
0.0
 71
     1
 72
     1
  1
210
  7
ＭＳ ゴシック
 73
     1
 44
0.7828267384257845
1001
ACAD
1000
MTEXTBEGIN
1070
    73
1070
     1
1070
    44
1040
0.7828267384257845
1070
    74
1070
     0
1000
MTEXTEND
  0
POINT
  5
BF
330
2B
100
AcDbEntity
  8
Defpoints
 62
     0
370
     0
100
AcDbPoint
 10
1710.0
 20
1214.0
 30
0.0
  0
POINT
  5
C0
330
2B
100
AcDbEntity
  8
Defpoints
 62
     0
370
     0
100
AcDbPoint
 10
1500.0
 20
1214.0
 30
0.0
  0
POINT
  5
C1
330
2B
100
AcDbEntity
  8
Defpoints
 62
     0
370
     0
100
AcDbPoint
 10
1500.0
 20
1367.257417636164
 30
0.0
  0
ENDBLK
  5
C2
330
2B
100
AcDbEntity
  8
寸法
100
AcDbBlockEnd
  0
BLOCK
  5
C3
330
2C
100
AcDbEntity
  8
寸法
100
AcDbBlockBegin
  2
*D10
 70
     1
 10
0.0
 20
0.0
 30
0.0
  3
*D10
  1

  0
LINE
  5
C4
330
2C
100
AcDbEntity
  8
寸法
  6
Continuous
 62
     0
370
    -2
100
AcDbLine
 10
1710.0
 20
1118.875
 30
0.0
 11
1710.0
 21
1057.5
 31
0.0
  0
LINE
  5
C5
330
2C
100
AcDbEntity
  8
寸法
  6
Continuous
 62
     0
370
    -2
100
AcDbLine
 10
1717.0
 20
1118.875
 30
0.0
 11
1717.0
 21
1057.5
 31
0.0
  0
LINE
  5
C6
330
2C
100
AcDbEntity
  8
寸法
  6
Continuous
 62
     0
370
    -2
100
AcDbLine
 10
1694.125
 20
1089.25
 30
0.0
 11
1710.0
 21
1089.25
 31
0.0
  0
LINE
  5
C7
330
2C
100
AcDbEntity
  8
寸法
  6
Continuous
 62
     0
370
    -2
100
AcDbLine
 10
1717.0
 20
1089.25
 30
0.0
 11
1732.875
 21
1089.25
 31
0.0
  0
LINE
  5
C8
330
2C
100
AcDbEntity
  8
寸法
  6
Continuous
 62
     0
370
    -2
100
AcDbLine
 10
1717.0
 20
1089.25
 30
0.0
 11
1776.875
 21
1089.25
 31
0.0
  0
LINE
  5
C9
330
2C
100
AcDbEntity
  8
寸法
  6
Continuous
 62
     0
370
    -2
100
AcDbLine
 10
1710.0
 20
1089.25
 30
0.0
 11
1717.0
 21
1089.25
 31
0.0
  0
LINE
  5
CA
330
2C
100
AcDbEntity
  8
寸法
  6
Continuous
 62
     0
370
    20
100
AcDbLine
 10
1721.225320151336
 20
1100.475320151336
 30
0.0
 11
1698.774679848663
 21
1078.024679848663
 31
0.0
  0
LINE
  5
CB
330
2C
100
AcDbEntity
  8
寸法
  6
Continuous
 62
     0
370
    20
100
AcDbLine
 10
1705.774679848663
 20
1078.024679848663
 30
0.0
 11
1728.225320151336
 21
1100.475320151336
 31
0.0
  0
WIPEOUT
  5
CC
330
2C
100
AcDbEntity
  8
寸法
  6
Continuous
 62
     0
 92
      276
310
1401000003000000800000000A0000000000000000849B40FFFFFFFF7F449140000000000000000000000000000000000000000000000000000000000000F03F000000000000F03F000000000000000000000000000000000000000000000000000000000000F03F000000000000000041634462576970656F757420285769
310
70654F7574290000008400000006000000050000000000000000849B40FFFFFFFF7F44914000000000000000000000000080C39B40FFFFFFFF7F44914000000000000000000000000080C39B40FFFFFFFF7FC3914000000000000000000000000000849B40FFFFFFFF7FC3914000000000000000000000000000849B40FFFF
310
FFFF7F44914000000000000000000800000015000000
370
    -2
100
AcDbWipeout
 90
        0
 10
1761.0
 20
1466.264680222648
 30
0.0
 11
31.75
 21
0.0
 31
0.0
 12
0.0
 22
31.75
 32
0.0
 13
1.0
 23
1.0
340
0
 70
     7
280
     1
281
    50
282
    50
283
     0
360
0
 71
     2
 91
        5
 14
-0.5
 24
11.87447811724876
 14
0.0
 24
11.87447811724876
 14
0.0
 24
10.87447811724876
 14
-0.5
 24
10.87447811724876
 14
-0.5
 24
11.87447811724876
  0
MTEXT
  5
CD
330
2C
100
AcDbEntity
  8
寸法
 62
     0
100
AcDbMText
 10
1761.0
 20
1134.0026171875
 30
0.0
 40
24.4326171875
 41
0.0
 71
     1
 72
     1
  1
7
  7
ＭＳ ゴシック
 73
     1
 44
0.7828267384257845
1001
ACAD
1000
MTEXTBEGIN
1070
    73
1070
     1
1070
    44
1040
0.7828267384257845
1070
    74
1070
     0
1000
MTEXTEND
  0
POINT
  5
CE
330
2C
100
AcDbEntity
  8
Defpoints
 62
     0
370
     0
100
AcDbPoint
 10
1717.0
 20
1134.75
 30
0.0
  0
POINT
  5
CF
330
2C
100
AcDbEntity
  8
Defpoints
 62
     0
370
     0
100
AcDbPoint
 10
1710.0
 20
1134.75
 30
0.0
  0
POINT
  5
D0
330
2C
100
AcDbEntity
  8
Defpoints
 62
     0
370
     0
100
AcDbPoint
 10
1710.0
 20
1089.25
 30
0.0
  0
ENDBLK
  5
D1
330
2C
100
AcDbEntity
  8
寸法
100
AcDbBlockEnd
  0
BLOCK
  5
D2
330
2D
100
AcDbEntity
  8
寸法
100
AcDbBlockBegin
  2
*D11
 70
     1
 10
0.0
 20
0.0
 30
0.0
  3
*D11
  1

  0
LINE
  5
D3
330
2D
100
AcDbEntity
  8
寸法
  6
Continuous
 62
     0
370
    -2
100
AcDbLine
 10
1705.0
 20
837.1249999999999
 30
0.0
 11
1705.0
 21
662.0
 31
0.0
  0
LINE
  5
D4
330
2D
100
AcDbEntity
  8
寸法
  6
Continuous
 62
     0
370
    -2
100
AcDbLine
 10
1699.0
 20
837.1249999999999
 30
0.0
 11
1699.0
 21
662.0
 31
0.0
  0
LINE
  5
D5
330
2D
100
AcDbEntity
  8
寸法
  6
Continuous
 62
     0
370
    -2
100
AcDbLine
 10
1720.875
 20
693.75
 30
0.0
 11
1705.0
 21
693.75
 31
0.0
  0
LINE
  5
D6
330
2D
100
AcDbEntity
  8
寸法
  6
Continuous
 62
     0
370
    -2
100
AcDbLine
 10
1699.0
 20
693.75
 30
0.0
 11
1683.125
 21
693.75
 31
0.0
  0
LINE
  5
D7
330
2D
100
AcDbEntity
  8
寸法
  6
Continuous
 62
     0
370
    -2
100
AcDbLine
 10
1705.0
 20
693.75
 30
0.0
 11
1729.25
 21
693.75
 31
0.0
  0
LINE
  5
D8
330
2D
100
AcDbEntity
  8
寸法
  6
Continuous
 62
     0
370
    -2
100
AcDbLine
 10
1705.0
 20
693.75
 30
0.0
 11
1699.0
 21
693.75
 31
0.0
  0
LINE
  5
D9
330
2D
100
AcDbEntity
  8
寸法
  6
Continuous
 62
     0
370
    20
100
AcDbLine
 10
1693.774679848663
 20
682.5246798486634
 30
0.0
 11
1716.225320151336
 21
704.9753201513364
 31
0.0
  0
LINE
  5
DA
330
2D
100
AcDbEntity
  8
寸法
  6
Continuous
 62
     0
370
    20
100
AcDbLine
 10
1710.225320151336
 20
704.9753201513364
 30
0.0
 11
1687.774679848663
 21
682.5246798486634
 31
0.0
  0
WIPEOUT
  5
DB
330
2D
100
AcDbEntity
  8
寸法
  6
Continuous
 62
     0
 92
      276
310
1401000003000000800000000A0000000000000080C59A40FEFFFFFFFF2C8640000000000000000000000000000000000000000000000000000000000000F03F000000000000F03F000000000000000000000000000000000000000000000000000000000000F03F000000000000000041634462576970656F757420285769
310
70654F7574290000008400000006000000050000000000000080C59A40FEFFFFFFFF2C864000000000000000000000000000059B40FEFFFFFFFF2C864000000000000000000000000000059B40FEFFFFFFFF2A874000000000000000000000000080C59A40FEFFFFFFFF2A874000000000000000000000000080C59A40FEFF
310
FFFFFF2C864000000000000000000800000015000000
370
    -2
100
AcDbWipeout
 90
        0
 10
1713.375
 20
1070.764680222648
 30
0.0
 11
31.75
 21
0.0
 31
0.0
 12
0.0
 22
31.75
 32
0.0
 13
1.0
 23
1.0
340
0
 70
     7
280
     1
281
    50
282
    50
283
     0
360
0
 71
     2
 91
        5
 14
-0.5
 24
11.87447811724876
 14
0.0
 24
11.87447811724876
 14
0.0
 24
10.87447811724876
 14
-0.5
 24
10.87447811724876
 14
-0.5
 24
11.87447811724876
  0
MTEXT
  5
DC
330
2D
100
AcDbEntity
  8
寸法
 62
     0
100
AcDbMText
 10
1713.375
 20
738.5026171875
 30
0.0
 40
24.4326171875
 41
0.0
 71
     1
 72
     1
  1
6
  7
ＭＳ ゴシック
 73
     1
 44
0.7828267384257845
1001
ACAD
1000
MTEXTBEGIN
1070
    73
1070
     1
1070
    44
1040
0.7828267384257845
1070
    74
1070
     0
1000
MTEXTEND
  0
POINT
  5
DD
330
2D
100
AcDbEntity
  8
Defpoints
 62
     0
370
     0
100
AcDbPoint
 10
1699.0
 20
853.0
 30
0.0
  0
POINT
  5
DE
330
2D
100
AcDbEntity
  8
Defpoints
 62
     0
370
     0
100
AcDbPoint
 10
1705.0
 20
853.0
 30
0.0
  0
POINT
  5
DF
330
2D
100
AcDbEntity
  8
Defpoints
 62
     0
370
     0
100
AcDbPoint
 10
1705.0
 20
693.75
 30
0.0
  0
ENDBLK
  5
E0
330
2D
100
AcDbEntity
  8
寸法
100
AcDbBlockEnd
  0
BLOCK
  5
E1
330
2E
100
AcDbEntity
  8
寸法
100
AcDbBlockBegin
  2
*D12
 70
     1
 10
0.0
 20
0.0
 30
0.0
  3
*D12
  1

  0
LINE
  5
E2
330
2E
100
AcDbEntity
  8
寸法
  6
Continuous
 62
     0
370
    -2
100
AcDbLine
 10
65.1724278330148
 20
1259.0
 30
0.0
 11
-106.7025721669852
 21
1259.0
 31
0.0
  0
LINE
  5
E3
330
2E
100
AcDbEntity
  8
寸法
  6
Continuous
 62
     0
370
    -2
100
AcDbLine
 10
65.1724278330148
 20
849.0
 30
0.0
 11
-106.7025721669852
 21
849.0
 31
0.0
  0
LINE
  5
E4
330
2E
100
AcDbEntity
  8
寸法
  6
Continuous
 62
     0
370
    -2
100
AcDbLine
 10
-74.95257216698519
 20
1274.875
 30
0.0
 11
-74.95257216698519
 21
1259.0
 31
0.0
  0
LINE
  5
E5
330
2E
100
AcDbEntity
  8
寸法
  6
Continuous
 62
     0
370
    -2
100
AcDbLine
 10
-74.95257216698519
 20
849.0
 30
0.0
 11
-74.95257216698519
 21
833.125
 31
0.0
  0
LINE
  5
E6
330
2E
100
AcDbEntity
  8
寸法
  6
Continuous
 62
     0
370
    -2
100
AcDbLine
 10
-74.95257216698519
 20
1259.0
 30
0.0
 11
-74.95257216698519
 21
849.0
 31
0.0
  0
LINE
  5
E7
330
2E
100
AcDbEntity
  8
寸法
  6
Continuous
 62
     0
370
    20
100
AcDbLine
 10
-63.72725201564867
 20
1247.774679848663
 30
0.0
 11
-86.17789231832171
 21
1270.225320151336
 31
0.0
  0
LINE
  5
E8
330
2E
100
AcDbEntity
  8
寸法
  6
Continuous
 62
     0
370
    20
100
AcDbLine
 10
-86.17789231832171
 20
860.2253201513361
 30
0.0
 11
-63.72725201564867
 21
837.7746798486636
 31
0.0
  0
WIPEOUT
  5
E9
330
2E
100
AcDbEntity
  8
寸法
  6
Continuous
 62
     0
 92
      276
310
1401000003000000800000000A000000011240F1F6A45EC0711C8FFFBF189040000000000000000000000000000000000000000000000000000000000000F03F000000000000F03F000000000000000000000000000000000000000000000000000000000000F03F000000000000000041634462576970656F757420285769
310
70654F757429000000840000000600000005000000011240F1F6A45EC0711C8FFFBF1890400000000000000000011240F1F6B456C0711C8FFFBF1890400000000000000000011240F1F6B456C08DE3700040D790400000000000000000011240F1F6A45EC08DE3700040D790400000000000000000011240F1F6A45EC0711C
310
8FFFBF18904000000000000000000800000015000000
370
    -2
100
AcDbWipeout
 90
        0
 10
-122.5775721669852
 20
1391.327178540472
 30
0.0
 11
47.62500336435107
 21
0.0
 31
0.0
 12
0.0
 22
47.62500336435107
 32
0.0
 13
1.0
 23
1.0
340
0
 70
     7
280
     1
281
    50
282
    50
283
     0
360
0
 71
     2
 91
        5
 14
0.1666666195716419
 24
8.082984875817837
 14
0.1666666195716419
 24
7.082984875817841
 14
-0.5
 24
7.082984875817841
 14
-0.5
 24
8.082984875817837
 14
0.1666666195716419
 24
8.082984875817837
  0
MTEXT
  5
EA
330
2E
100
AcDbEntity
  8
寸法
 62
     0
100
AcDbMText
 10
-119.7051893544851
 20
1030.187498317824
 30
0.0
 40
24.4326171875
 41
0.0
 71
     1
 72
     1
  1
410
  7
ＭＳ ゴシック
 11
0.0
 21
1.0
 31
0.0
 73
     1
 44
0.7828267384257845
1001
ACAD
1000
MTEXTBEGIN
1070
    73
1070
     1
1070
    44
1040
0.7828267384257845
1070
    74
1070
     0
1000
MTEXTEND
  0
POINT
  5
EB
330
2E
100
AcDbEntity
  8
Defpoints
 62
     0
370
     0
100
AcDbPoint
 10
81.0474278330148
 20
849.0
 30
0.0
  0
POINT
  5
EC
330
2E
100
AcDbEntity
  8
Defpoints
 62
     0
370
     0
100
AcDbPoint
 10
81.0474278330148
 20
1259.0
 30
0.0
  0
POINT
  5
ED
330
2E
100
AcDbEntity
  8
Defpoints
 62
     0
370
     0
100
AcDbPoint
 10
-74.95257216698519
 20
1259.0
 30
0.0
  0
ENDBLK
  5
EE
330
2E
100
AcDbEntity
  8
寸法
100
AcDbBlockEnd
  0
BLOCK
  5
EF
330
2F
100
AcDbEntity
  8
寸法
100
AcDbBlockBegin
  2
*D13
 70
     1
 10
0.0
 20
0.0
 30
0.0
  3
*D13
  1

  0
LINE
  5
F0
330
2F
100
AcDbEntity
  8
寸法
  6
Continuous
 62
     0
370
    -2
100
AcDbLine
 10
60.0
 20
874.125
 30
0.0
 11
60.0
 21
619.4222829376615
 31
0.0
  0
LINE
  5
F1
330
2F
100
AcDbEntity
  8
寸法
  6
Continuous
 62
     0
370
    -2
100
AcDbLine
 10
256.0
 20
790.209945435796
 30
0.0
 11
256.0
 21
619.4222829376615
 31
0.0
  0
LINE
  5
F2
330
2F
100
AcDbEntity
  8
寸法
  6
Continuous
 62
     0
370
    -2
100
AcDbLine
 10
44.125
 20
651.1722829376615
 30
0.0
 11
60.0
 21
651.1722829376615
 31
0.0
  0
LINE
  5
F3
330
2F
100
AcDbEntity
  8
寸法
  6
Continuous
 62
     0
370
    -2
100
AcDbLine
 10
256.0
 20
651.1722829376615
 30
0.0
 11
271.875
 21
651.1722829376615
 31
0.0
  0
LINE
  5
F4
330
2F
100
AcDbEntity
  8
寸法
  6
Continuous
 62
     0
370
    -2
100
AcDbLine
 10
60.0
 20
651.1722829376615
 30
0.0
 11
256.0
 21
651.1722829376615
 31
0.0
  0
LINE
  5
F5
330
2F
100
AcDbEntity
  8
寸法
  6
Continuous
 62
     0
370
    20
100
AcDbLine
 10
71.22532015133652
 20
662.3976030889979
 30
0.0
 11
48.77467984866347
 21
639.946962786325
 31
0.0
  0
LINE
  5
F6
330
2F
100
AcDbEntity
  8
寸法
  6
Continuous
 62
     0
370
    20
100
AcDbLine
 10
244.7746798486636
 20
639.946962786325
 30
0.0
 11
267.2253201513364
 21
662.3976030889977
 31
0.0
  0
WIPEOUT
  5
F7
330
2F
100
AcDbEntity
  8
寸法
  6
Continuous
 62
     0
 92
      276
310
1401000003000000800000000A0000008FE378FCFFC560404C77E0D560D88440000000000000000000000000000000000000000000000000000000000000F03F000000000000F03F000000000000000000000000000000000000000000000000000000000000F03F000000000000000041634462576970656F757420285769
310
70654F7574290000008400000006000000050000008FE378FCFFC560404C77E0D560D884400000000000000000731C870300BA66404C77E0D560D884400000000000000000731C870300BA66404D77E0D560D6854000000000000000008FE378FCFFC560404D77E0D560D6854000000000000000008FE378FCFFC560404C77
310
E0D560D8844000000000000000000800000015000000
370
    -2
100
AcDbWipeout
 90
        0
 10
134.1874983178245
 20
1028.186963160309
 30
0.0
 11
47.62500336435107
 21
0.0
 31
0.0
 12
0.0
 22
47.62500336435107
 32
0.0
 13
1.0
 23
1.0
340
0
 70
     7
280
     1
281
    50
282
    50
283
     0
360
0
 71
     2
 91
        5
 14
-0.5
 24
8.082984875817842
 14
0.5
 24
8.082984875817842
 14
0.5
 24
7.416318256246199
 14
-0.5
 24
7.416318256246199
 14
-0.5
 24
8.082984875817842
  0
MTEXT
  5
F8
330
2F
100
AcDbEntity
  8
寸法
 62
     0
100
AcDbMText
 10
134.1874983178245
 20
695.9249001251614
 30
0.0
 40
24.4326171875
 41
0.0
 71
     1
 72
     1
  1
196
  7
ＭＳ ゴシック
 73
     1
 44
0.7828267384257845
1001
ACAD
1000
MTEXTBEGIN
1070
    73
1070
     1
1070
    44
1040
0.7828267384257845
1070
    74
1070
     0
1000
MTEXTEND
  0
POINT
  5
F9
330
2F
100
AcDbEntity
  8
Defpoints
 62
     0
370
     0
100
AcDbPoint
 10
256.0
 20
806.084945435796
 30
0.0
  0
POINT
  5
FA
330
2F
100
AcDbEntity
  8
Defpoints
 62
     0
370
     0
100
AcDbPoint
 10
60.0
 20
890.0
 30
0.0
  0
POINT
  5
FB
330
2F
100
AcDbEntity
  8
Defpoints
 62
     0
370
     0
100
AcDbPoint
 10
60.0
 20
651.1722829376615
 30
0.0
  0
ENDBLK
  5
FC
330
2F
100
AcDbEntity
  8
寸法
100
AcDbBlockEnd
  0
BLOCK
  5
FD
330
30
100
AcDbEntity
  8
寸法
100
AcDbBlockBegin
  2
*D14
 70
     1
 10
0.0
 20
0.0
 30
0.0
  3
*D14
  1

  0
LINE
  5
FE
330
30
100
AcDbEntity
  8
寸法
  6
Continuous
 62
     0
370
    -2
100
AcDbLine
 10
513.8749999999999
 20
1290.0
 30
0.0
 11
551.75
 21
1290.0
 31
0.0
  0
LINE
  5
FF
330
30
100
AcDbEntity
  8
寸法
  6
Continuous
 62
     0
370
    -2
100
AcDbLine
 10
513.8749999999999
 20
1054.0
 30
0.0
 11
551.75
 21
1054.0
 31
0.0
  0
LINE
  5
100
330
30
100
AcDbEntity
  8
寸法
  6
Continuous
 62
     0
370
    -2
100
AcDbLine
 10
520.0
 20
1305.875
 30
0.0
 11
520.0
 21
1290.0
 31
0.0
  0
LINE
  5
101
330
30
100
AcDbEntity
  8
寸法
  6
Continuous
 62
     0
370
    -2
100
AcDbLine
 10
520.0
 20
1054.0
 30
0.0
 11
520.0
 21
1038.125
 31
0.0
  0
LINE
  5
102
330
30
100
AcDbEntity
  8
寸法
  6
Continuous
 62
     0
370
    -2
100
AcDbLine
 10
520.0
 20
1290.0
 30
0.0
 11
520.0
 21
1054.0
 31
0.0
  0
LINE
  5
103
330
30
100
AcDbEntity
  8
寸法
  6
Continuous
 62
     0
370
    20
100
AcDbLine
 10
531.2253201513364
 20
1278.774679848663
 30
0.0
 11
508.7746798486636
 21
1301.225320151336
 31
0.0
  0
LINE
  5
104
330
30
100
AcDbEntity
  8
寸法
  6
Continuous
 62
     0
370
    20
100
AcDbLine
 10
508.7746798486636
 20
1065.225320151336
 30
0.0
 11
531.2253201513364
 21
1042.774679848664
 31
0.0
  0
WIPEOUT
  5
105
330
30
100
AcDbEntity
  8
寸法
  6
Continuous
 62
     0
 92
      276
310
1401000003000000800000000A000000FDFFFFFFFF857D40711C8FFFBFF09140000000000000000000000000000000000000000000000000000000000000F03F000000000000F03F000000000000000000000000000000000000000000000000000000000000F03F000000000000000041634462576970656F757420285769
310
70654F757429000000840000000600000005000000FDFFFFFFFF857D40711C8FFFBFF091400000000000000000FDFFFFFFFF817F40711C8FFFBFF091400000000000000000FDFFFFFFFF817F408DE3700040AF92400000000000000000FDFFFFFFFF857D408DE3700040AF92400000000000000000FDFFFFFFFF857D40711C
310
8FFFBFF0914000000000000000000800000015000000
370
    -2
100
AcDbWipeout
 90
        0
 10
472.3749999999998
 20
1509.327178540472
 30
0.0
 11
47.62500336435107
 21
0.0
 31
0.0
 12
0.0
 22
47.62500336435107
 32
0.0
 13
1.0
 23
1.0
340
0
 70
     7
280
     1
281
    50
282
    50
283
     0
360
0
 71
     2
 91
        5
 14
0.1666666195716419
 24
8.082984875817837
 14
0.1666666195716419
 24
7.082984875817841
 14
-0.5
 24
7.082984875817841
 14
-0.5
 24
8.082984875817837
 14
0.1666666195716419
 24
8.082984875817837
  0
MTEXT
  5
106
330
30
100
AcDbEntity
  8
寸法
 62
     0
100
AcDbMText
 10
475.2473828124998
 20
1148.187498317824
 30
0.0
 40
24.4326171875
 41
0.0
 71
     1
 72
     1
  1
236
  7
ＭＳ ゴシック
 11
0.0
 21
1.0
 31
0.0
 73
     1
 44
0.7828267384257845
1001
ACAD
1000
MTEXTBEGIN
1070
    73
1070
     1
1070
    44
1040
0.7828267384257845
1070
    74
1070
     0
1000
MTEXTEND
  0
POINT
  5
107
330
30
100
AcDbEntity
  8
Defpoints
 62
     0
370
     0
100
AcDbPoint
 10
498.0
 20
1054.0
 30
0.0
  0
POINT
  5
108
330
30
100
AcDbEntity
  8
Defpoints
 62
     0
370
     0
100
AcDbPoint
 10
498.0
 20
1290.0
 30
0.0
  0
POINT
  5
109
330
30
100
AcDbEntity
  8
Defpoints
 62
     0
370
     0
100
AcDbPoint
 10
520.0
 20
1290.0
 30
0.0
  0
ENDBLK
  5
10A
330
30
100
AcDbEntity
  8
寸法
100
AcDbBlockEnd
  0
BLOCK
  5
10B
330
31
100
AcDbEntity
  8
寸法
100
AcDbBlockBegin
  2
*D15
 70
     1
 10
0.0
 20
0.0
 30
0.0
  3
*D15
  1

  0
LINE
  5
10C
330
31
100
AcDbEntity
  8
寸法
  6
Continuous
 62
     0
370
    -2
100
AcDbLine
 10
1515.0
 20
802.125
 30
0.0
 11
1515.0
 21
660.25
 31
0.0
  0
LINE
  5
10D
330
31
100
AcDbEntity
  8
寸法
  6
Continuous
 62
     0
370
    -2
100
AcDbLine
 10
1530.0
 20
802.125
 30
0.0
 11
1530.0
 21
660.25
 31
0.0
  0
LINE
  5
10E
330
31
100
AcDbEntity
  8
寸法
  6
Continuous
 62
     0
370
    -2
100
AcDbLine
 10
1499.125
 20
692.0
 30
0.0
 11
1515.0
 21
692.0
 31
0.0
  0
LINE
  5
10F
330
31
100
AcDbEntity
  8
寸法
  6
Continuous
 62
     0
370
    -2
100
AcDbLine
 10
1530.0
 20
692.0
 30
0.0
 11
1545.875
 21
692.0
 31
0.0
  0
LINE
  5
110
330
31
100
AcDbEntity
  8
寸法
  6
Continuous
 62
     0
370
    -2
100
AcDbLine
 10
1530.0
 20
692.0
 30
0.0
 11
1576.75
 21
692.0
 31
0.0
  0
LINE
  5
111
330
31
100
AcDbEntity
  8
寸法
  6
Continuous
 62
     0
370
    -2
100
AcDbLine
 10
1515.0
 20
692.0
 30
0.0
 11
1530.0
 21
692.0
 31
0.0
  0
LINE
  5
112
330
31
100
AcDbEntity
  8
寸法
  6
Continuous
 62
     0
370
    20
100
AcDbLine
 10
1526.225320151336
 20
703.2253201513364
 30
0.0
 11
1503.774679848663
 21
680.7746798486634
 31
0.0
  0
LINE
  5
113
330
31
100
AcDbEntity
  8
寸法
  6
Continuous
 62
     0
370
    20
100
AcDbLine
 10
1518.774679848664
 20
680.7746798486634
 30
0.0
 11
1541.225320151336
 21
703.2253201513364
 31
0.0
  0
WIPEOUT
  5
114
330
31
100
AcDbEntity
  8
寸法
  6
Continuous
 62
     0
 92
      276
310
1401000003000000800000000A0000000000000000249840FEFFFFFFFF1E8640000000000000000000000000000000000000000000000000000000000000F03F000000000000F03F000000000000000000000000000000000000000000000000000000000000F03F000000000000000041634462576970656F757420285769
310
70654F7574290000008400000006000000050000000000000000249840FEFFFFFFFF1E864000000000000000000000000000A39840FEFFFFFFFF1E864000000000000000000000000000A39840FEFFFFFFFF1C874000000000000000000000000000249840FEFFFFFFFF1C874000000000000000000000000000249840FEFF
310
FFFFFF1E864000000000000000000800000015000000
370
    -2
100
AcDbWipeout
 90
        0
 10
1545.0
 20
1069.014680222648
 30
0.0
 11
31.75
 21
0.0
 31
0.0
 12
0.0
 22
31.75
 32
0.0
 13
1.0
 23
1.0
340
0
 70
     7
280
     1
281
    50
282
    50
283
     0
360
0
 71
     2
 91
        5
 14
-0.5
 24
11.87447811724876
 14
0.5
 24
11.87447811724876
 14
0.5
 24
10.87447811724876
 14
-0.5
 24
10.87447811724876
 14
-0.5
 24
11.87447811724876
  0
MTEXT
  5
115
330
31
100
AcDbEntity
  8
寸法
 62
     0
100
AcDbMText
 10
1545.0
 20
736.7526171875
 30
0.0
 40
24.4326171875
 41
0.0
 71
     1
 72
     1
  1
15
  7
ＭＳ ゴシック
 73
     1
 44
0.7828267384257845
1001
ACAD
1000
MTEXTBEGIN
1070
    73
1070
     1
1070
    44
1040
0.7828267384257845
1070
    74
1070
     0
1000
MTEXTEND
  0
POINT
  5
116
330
31
100
AcDbEntity
  8
Defpoints
 62
     0
370
     0
100
AcDbPoint
 10
1530.0
 20
818.0
 30
0.0
  0
POINT
  5
117
330
31
100
AcDbEntity
  8
Defpoints
 62
     0
370
     0
100
AcDbPoint
 10
1515.0
 20
818.0
 30
0.0
  0
POINT
  5
118
330
31
100
AcDbEntity
  8
Defpoints
 62
     0
370
     0
100
AcDbPoint
 10
1515.0
 20
692.0
 30
0.0
  0
ENDBLK
  5
119
330
31
100
AcDbEntity
  8
寸法
100
AcDbBlockEnd
  0
BLOCK
  5
11A
330
32
100
AcDbEntity
  8
寸法
100
AcDbBlockBegin
  2
*D16
 70
     1
 10
0.0
 20
0.0
 30
0.0
  3
*D16
  1

  0
LINE
  5
11B
330
32
100
AcDbEntity
  8
寸法
  6
Continuous
 62
     0
370
    -2
100
AcDbLine
 10
325.2150029632399
 20
995.6944825526884
 30
0.0
 11
423.7689193849206
 21
912.6743735096097
 31
0.0
  0
LINE
  5
11C
330
32
100
AcDbEntity
  8
寸法
  6
Continuous
 62
     0
370
    -2
100
AcDbLine
 10
186.78499703676
 20
1112.305517447311
 30
0.0
 11
325.2150029632399
 21
995.6944825526884
 31
0.0
  0
SOLID
  5
11D
330
32
100
AcDbEntity
  8
寸法
 62
     0
370
    -2
100
AcDbTrace
 10
186.78499703676
 20
1112.305517447311
 30
0.0
 11
216.3283741712465
 21
1097.896249642531
 31
0.0
 12
205.1656782464194
 22
1085.055036911195
 32
0.0
 13
205.1656782464194
 23
1085.055036911195
 33
0.0
  0
SOLID
  5
11E
330
32
100
AcDbEntity
  8
寸法
 62
     0
370
    -2
100
AcDbTrace
 10
325.2150029632399
 20
995.6944825526884
 30
0.0
 11
295.6716258287533
 21
1010.103750357469
 31
0.0
 12
306.8343217535805
 22
1022.944963088805
 32
0.0
 13
306.8343217535805
 23
1022.944963088805
 33
0.0
  0
WIPEOUT
  5
11F
330
32
100
AcDbEntity
  8
寸法
  6
Continuous
 62
     0
 92
      276
310
1401000003000000800000000A000000E781A6E7A35477401279DB8286E68C40000000000000000000000000000000000000000000000000000000000000F03F000000000000F03F000000000000000000000000000000000000000000000000000000000000F03F000000000000000041634462576970656F757420285769
310
70654F757429000000840000000600000005000000E781A6E7A35477401279DB8286E68C4000000000000000004FC7AF8D3A677C401279DB8286E68C4000000000000000004FC7AF8D3A677C40BD91C12EE4418F400000000000000000E781A6E7A3547740BD91C12EE4418F400000000000000000E781A6E7A35477401279
310
DB8286E68C4000000000000000000800000015000000
370
    -2
100
AcDbWipeout
 90
        0
 10
373.2900158409306
 20
1285.955359500671
 30
0.0
 11
81.16177943822412
 21
0.0
 31
0.0
 12
0.0
 22
81.16177943822412
 32
0.0
 13
1.0
 23
1.0
340
0
 70
     7
280
     1
281
    50
282
    50
283
     0
360
0
 71
     2
 91
        5
 14
-0.5
 24
4.319550974337787
 14
0.247969416913468
 24
4.949627432054118
 14
0.5
 24
4.650439665288731
 14
-0.247969416913468
 24
4.020363207572398
 14
-0.5
 24
4.319550974337787
  0
MTEXT
  5
120
330
32
100
AcDbEntity
  8
寸法
 62
     0
100
AcDbMText
 10
391.8947054847158
 20
998.0395997927685
 30
0.0
 40
24.4326171875
 41
0.0
 71
     1
 72
     1
  1
\U+03c6181
  7
ＭＳ ゴシック
 11
0.7648066625772346
 21
-0.6442598612962568
 31
0.0
 73
     1
 44
0.7828267384257845
1001
ACAD
1000
MTEXTBEGIN
1070
    73
1070
     1
1070
    44
1040
0.7828267384257845
1070
    74
1070
     0
1000
MTEXTEND
  0
POINT
  5
121
330
32
100
AcDbEntity
  8
Defpoints
 62
     0
370
     0
100
AcDbPoint
 10
186.78499703676
 20
1112.305517447311
 30
0.0
  0
POINT
  5
122
330
32
100
AcDbEntity
  8
Defpoints
 62
     0
370
     0
100
AcDbPoint
 10
325.2150029632399
 20
995.6944825526884
 30
0.0
  0
ENDBLK
  5
123
330
32
100
AcDbEntity
  8
寸法
100
AcDbBlockEnd
  0
BLOCK
  5
124
330
33
100
AcDbEntity
  8
寸法
100
AcDbBlockBegin
  2
*D17
 70
     1
 10
0.0
 20
0.0
 30
0.0
  3
*D17
  1

  0
LINE
  5
125
330
33
100
AcDbEntity
  8
寸法
  6
Continuous
 62
     0
370
    -2
100
AcDbLine
 10
312.2149891043289
 20
1110.214989104329
 30
0.0
 11
389.1266007566823
 21
1187.126600756682
 31
0.0
  0
LINE
  5
126
330
33
100
AcDbEntity
  8
寸法
  6
Continuous
 62
     0
370
    -2
100
AcDbLine
 10
199.7850108956712
 20
997.7850108956712
 30
0.0
 11
312.2149891043289
 21
1110.214989104329
 31
0.0
  0
SOLID
  5
127
330
33
100
AcDbEntity
  8
寸法
 62
     0
370
    -2
100
AcDbTrace
 10
199.7850108956712
 20
997.7850108956712
 30
0.0
 11
216.2200202596813
 21
1026.251282137006
 31
0.0
 12
228.2512821370069
 22
1014.220020259681
 32
0.0
 13
228.2512821370069
 23
1014.220020259681
 33
0.0
  0
SOLID
  5
128
330
33
100
AcDbEntity
  8
寸法
 62
     0
370
    -2
100
AcDbTrace
 10
312.2149891043289
 20
1110.214989104329
 30
0.0
 11
295.7799797403188
 21
1081.748717862993
 31
0.0
 12
283.7487178629932
 22
1093.779979740319
 32
0.0
 13
283.7487178629932
 23
1093.779979740319
 33
0.0
  0
WIPEOUT
  5
129
330
33
100
AcDbEntity
  8
寸法
  6
Continuous
 62
     0
 92
      276
310
1401000003000000800000000A0000003F4A17442FB57240786453BAE6D89140000000000000000000000000000000000000000000000000000000000000F03F000000000000F03F000000000000000000000000000000000000000000000000000000000000F03F000000000000000041634462576970656F757420285769
310
70654F7574290000008400000006000000050000003F4A17442FB57240786453BAE6D891400000000000000000A94736A56B9E7740786453BAE6D891400000000000000000A94736A56B9E7740D4239BD23513934000000000000000003F4A17442FB57240D4239BD23513934000000000000000003F4A17442FB572407864
310
53BAE6D8914000000000000000000800000015000000
370
    -2
100
AcDbWipeout
 90
        0
 10
299.3240395459906
 20
1503.365000373984
 30
0.0
 11
78.57724105935506
 21
0.0
 31
0.0
 12
0.0
 22
78.57724105935506
 32
0.0
 13
1.0
 23
1.0
340
0
 70
     7
280
     1
281
    50
282
    50
283
     0
360
0
 71
     2
 91
        5
 14
-0.2142857142857137
 24
5.095983205236909
 14
0.5
 24
4.381697490951195
 14
0.2142857142857151
 24
4.095983205236906
 14
-0.5
 24
4.810268919522624
 14
-0.2142857142857137
 24
5.095983205236909
  0
MTEXT
  5
12A
330
33
100
AcDbEntity
  8
寸法
 62
     0
100
AcDbMText
 10
301.355120910873
 20
1162.644879089127
 30
0.0
 40
24.4326171875
 41
0.0
 71
     1
 72
     1
  1
\U+03c6159
  7
ＭＳ ゴシック
 11
0.7071067811865476
 21
0.7071067811865475
 31
0.0
 73
     1
 44
0.7828267384257845
1001
ACAD
1000
MTEXTBEGIN
1070
    73
1070
     1
1070
    44
1040
0.7828267384257845
1070
    74
1070
     0
1000
MTEXTEND
  0
POINT
  5
12B
330
33
100
AcDbEntity
  8
Defpoints
 62
     0
370
     0
100
AcDbPoint
 10
199.7850108956712
 20
997.7850108956712
 30
0.0
  0
POINT
  5
12C
330
33
100
AcDbEntity
  8
Defpoints
 62
     0
370
     0
100
AcDbPoint
 10
312.2149891043289
 20
1110.214989104329
 30
0.0
  0
ENDBLK
  5
12D
330
33
100
AcDbEntity
  8
寸法
100
AcDbBlockEnd
  0
BLOCK
  5
1D7
330
1D6
100
AcDbEntity
  8
0
100
AcDbBlockBegin
  2
_DotSmall
 70
     0
 10
0.0
 20
0.0
 30
0.0
  3
_DotSmall
  1

  0
LWPOLYLINE
  5
1D8
330
1D6
100
AcDbEntity
  8
0
 62
     0
100
AcDbPolyline
 90
        2
 70
     1
 43
0.5
 10
-0.0625
 20
0.0
 42
1.0
 10
0.0625
 20
0.0
 42
1.0
  0
ENDBLK
  5
1D9
330
1D6
100
AcDbEntity
  8
0
100
AcDbBlockEnd
  0
BLOCK
  5
1DB
330
1DA
100
AcDbEntity
  8
0
100
AcDbBlockBegin
  2
_Open30
 70
     0
 10
0.0
 20
0.0
 30
0.0
  3
_Open30
  1

  0
LINE
  5
1DC
330
1DA
100
AcDbEntity
  8
0
 62
     0
370
    -2
100
AcDbLine
 10
-1.0
 20
0.26794919
 30
0.0
 11
0.0
 21
0.0
 31
0.0
  0
LINE
  5
1DD
330
1DA
100
AcDbEntity
  8
0
 62
     0
370
    -2
100
AcDbLine
 10
0.0
 20
0.0
 30
0.0
 11
-1.0
 21
-0.26794919
 31
0.0
  0
LINE
  5
1DE
330
1DA
100
AcDbEntity
  8
0
 62
     0
370
    -2
100
AcDbLine
 10
0.0
 20
0.0
 30
0.0
 11
-1.0
 21
0.0
 31
0.0
  0
ENDBLK
  5
1DF
330
1DA
100
AcDbEntity
  8
0
100
AcDbBlockEnd
  0
ENDSEC
  0
SECTION
  2
ENTITIES
  0
DIMENSION
  5
12E
330
A
100
AcDbEntity
  8
寸法
  6
Continuous
 62
     7
370
    13
100
AcDbDimension
  2
*D2
 10
60.0
 20
1617.38787472012
 30
0.0
 11
570.0
 21
1617.38787472012
 31
0.0
 71
     5
 42
0.0
  3
Arch
100
AcDbAlignedDimension
 13
1080.0
 23
1225.0
 33
0.0
 14
60.0
 24
1225.0
 34
0.0
100
AcDbRotatedDimension
1001
ACAD
1000
DSTYLE
1002
{
1070
   279
1070
     2
1070
   340
1005
35
1070
   147
1040
15.875
1002
}
  0
DIMENSION
  5
12F
330
A
100
AcDbEntity
  8
寸法
  6
Continuous
 62
     7
370
    13
100
AcDbDimension
  2
*D3
 10
75.0
 20
1565.0
 30
0.0
 11
570.0
 21
1565.0
 31
0.0
 71
     5
 42
0.0
  3
Arch
100
AcDbAlignedDimension
 13
1065.0
 23
1170.0
 33
0.0
 14
75.0
 24
1170.0
 34
0.0
100
AcDbRotatedDimension
1001
ACAD
1000
DSTYLE
1002
{
1070
   279
1070
     2
1070
   340
1005
35
1070
   147
1040
15.875
1002
}
  0
DIMENSION
  5
130
330
A
100
AcDbEntity
  8
寸法
  6
Continuous
 62
     7
370
    13
100
AcDbDimension
  2
*D4
 10
105.0
 20
1515.0
 30
0.0
 11
570.0
 21
1515.0
 31
0.0
 71
     5
 42
0.0
  3
Arch
100
AcDbAlignedDimension
 13
1035.0
 23
1140.0
 33
0.0
 14
105.0
 24
1140.0
 34
0.0
100
AcDbRotatedDimension
1001
ACAD
1000
DSTYLE
1002
{
1070
   279
1070
     2
1070
   340
1005
35
1070
   147
1040
15.875
1002
}
  0
DIMENSION
  5
131
330
A
100
AcDbEntity
  8
寸法
  6
Continuous
 62
     7
370
    13
100
AcDbDimension
  2
*D5
 10
-185.0
 20
1290.0
 30
0.0
 11
-185.0
 21
1054.0
 31
0.0
 71
     5
 42
0.0
  3
Arch
100
AcDbAlignedDimension
 13
170.0
 23
818.0
 33
0.0
 14
170.0
 24
1290.0
 34
0.0
 50
90.0
100
AcDbRotatedDimension
1001
ACAD
1000
DSTYLE
1002
{
1070
   279
1070
     2
1070
   340
1005
35
1070
   147
1040
15.875
1002
}
  0
DIMENSION
  5
132
330
A
100
AcDbEntity
  8
寸法
  6
Continuous
 62
     7
370
    13
100
AcDbDimension
  2
*D6
 10
-130.1429012693043
 20
1275.0
 30
0.0
 11
-130.1429012693043
 21
1054.0
 31
0.0
 71
     5
 42
0.0
  3
Arch
100
AcDbAlignedDimension
 13
239.8570987306957
 23
833.0
 33
0.0
 14
239.8570987306957
 24
1275.0
 34
0.0
 50
90.0
100
AcDbRotatedDimension
1001
ACAD
1000
DSTYLE
1002
{
1070
   279
1070
     2
1070
   340
1005
35
1070
   147
1040
15.875
1002
}
  0
DIMENSION
  5
133
330
A
100
AcDbEntity
  8
寸法
  6
Continuous
 62
     7
370
    18
100
AcDbDimension
  2
*D7
 10
60.0
 20
587.9999999999544
 30
0.0
 11
315.0
 21
587.9999999999544
 31
0.0
 71
     5
 42
0.0
  3
Arch
100
AcDbAlignedDimension
 13
570.0
 23
806.084945435796
 33
0.0
 14
60.0
 24
890.0
 34
0.0
100
AcDbRotatedDimension
1001
ACAD
1000
DSTYLE
1002
{
1070
   279
1070
     2
1070
   340
1005
35
1070
   147
1040
15.875
1002
}
  0
LINE
  5
134
330
A
100
AcDbEntity
  8
実形
  6
Continuous
 62
     7
370
    25
100
AcDbLine
 10
1500.0
 20
1290.0
 30
0.0
 11
1500.0
 21
818.0
 31
0.0
  0
POLYLINE
  5
135
330
A
100
AcDbEntity
  8
実形
  6
Continuous
 62
     7
370
    25
100
AcDb2dPolyline
 66
     1
 10
0.0
 20
0.0
 30
0.0
 70
     1
 75
     5
  0
VERTEX
  5
136
330
135
100
AcDbEntity
  8
実形
  6
Continuous
 62
     7
370
    25
100
AcDbVertex
100
AcDb2dVertex
 10
1500.0
 20
1275.0
 30
0.0
  0
VERTEX
  5
137
330
135
100
AcDbEntity
  8
実形
  6
Continuous
 62
     7
370
    25
100
AcDbVertex
100
AcDb2dVertex
 10
1515.0
 20
1275.0
 30
0.0
  0
VERTEX
  5
138
330
135
100
AcDbEntity
  8
実形
  6
Continuous
 62
     7
370
    25
100
AcDbVertex
100
AcDb2dVertex
 10
1515.0
 20
833.0
 30
0.0
  0
VERTEX
  5
139
330
135
100
AcDbEntity
  8
実形
  6
Continuous
 62
     7
370
    25
100
AcDbVertex
100
AcDb2dVertex
 10
1500.0
 20
833.0
 30
0.0
  0
SEQEND
  5
13A
330
135
100
AcDbEntity
  8
実形
  6
Continuous
 62
     7
370
    25
  0
DIMENSION
  5
13B
330
A
100
AcDbEntity
  8
寸法
  6
Continuous
 62
     7
370
    13
100
AcDbDimension
  2
*D8
 10
1500.0
 20
692.25
 30
0.0
 11
1474.0
 21
708.1249999999998
 31
0.0
 70
   128
 71
     5
 42
0.0
  3
Arch
100
AcDbAlignedDimension
 13
1515.0
 23
820.2339924303537
 33
0.0
 14
1500.0
 24
820.2339924303537
 34
0.0
100
AcDbRotatedDimension
1001
ACAD
1000
DSTYLE
1002
{
1070
   279
1070
     2
1070
   340
1005
35
1070
   174
1070
     0
1070
   147
1040
15.875
1002
}
  0
POLYLINE
  5
13C
330
A
100
AcDbEntity
  8
実形
  6
Continuous
 62
     7
370
    25
100
AcDb2dPolyline
 66
     1
 10
0.0
 20
0.0
 30
0.0
 70
     1
 75
     5
  0
VERTEX
  5
13D
330
13C
100
AcDbEntity
  8
実形
  6
Continuous
 62
     7
370
    25
100
AcDbVertex
100
AcDb2dVertex
 10
1710.0
 20
1134.0
 30
0.0
  0
VERTEX
  5
13E
330
13C
100
AcDbEntity
  8
実形
  6
Continuous
 62
     7
370
    25
100
AcDbVertex
100
AcDb2dVertex
 10
1717.0
 20
1134.0
 30
0.0
  0
VERTEX
  5
13F
330
13C
100
AcDbEntity
  8
実形
  6
Continuous
 62
     7
370
    25
100
AcDbVertex
100
AcDb2dVertex
 10
1717.0
 20
974.0
 30
0.0
  0
VERTEX
  5
140
330
13C
100
AcDbEntity
  8
実形
  6
Continuous
 62
     7
370
    25
100
AcDbVertex
100
AcDb2dVertex
 10
1710.0
 20
974.0
 30
0.0
  0
SEQEND
  5
141
330
13C
100
AcDbEntity
  8
実形
  6
Continuous
 62
     7
370
    25
  0
LINE
  5
142
330
A
100
AcDbEntity
  8
実形
  6
Continuous
 62
     7
370
    25
100
AcDbLine
 10
1691.259313529254
 20
860.181981661851
 30
0.0
 11
1606.763992952071
 21
912.0305195940103
 31
0.0
  0
SOLID
  5
143
330
A
100
AcDbEntity
  8
実形
 62
     7
370
    25
100
AcDbTrace
 10
1691.259313529254
 20
860.181981661851
 30
0.0
 11
1659.825558291055
 21
869.7922450716305
 31
0.0
 12
1668.842014661521
 22
884.22159153088
 32
0.0
 13
1668.842014661521
 23
884.22159153088
 33
0.0
  0
MTEXT
  5
144
330
A
100
AcDbEntity
  8
実形
 62
     7
100
AcDbMText
 10
1565.519865420139
 20
957.9618903645306
 30
0.0
 40
24.4326171875
 41
0.0
 71
     1
 72
     1
  1
R30
  7
ＭＳ ゴシック
 11
0.8660254037844371
 21
-0.5000000000000028
 31
0.0
 73
     1
 44
0.7828267384257845
1001
ACAD
1000
MTEXTBEGIN
1070
    73
1070
     1
1070
    44
1040
0.7828267384257845
1070
    74
1070
     0
1000
MTEXTEND
  0
DIMENSION
  5
145
330
A
100
AcDbEntity
  8
寸法
  6
Continuous
 62
     7
370
    13
100
AcDbDimension
  2
*D9
 10
1500.0
 20
1367.257417636164
 30
0.0
 11
1609.419303895642
 21
1383.132417636164
 31
0.0
 70
   128
 71
     5
 42
0.0
  3
Arch
100
AcDbAlignedDimension
 13
1710.0
 23
1214.0
 33
0.0
 14
1500.0
 24
1214.0
 34
0.0
100
AcDbRotatedDimension
1001
ACAD
1000
DSTYLE
1002
{
1070
   279
1070
     2
1070
   340
1005
35
1070
   147
1040
15.875
1002
}
  0
DIMENSION
  5
146
330
A
100
AcDbEntity
  8
寸法
  6
Continuous
 62
     7
370
    13
100
AcDbDimension
  2
*D10
 10
1710.0
 20
1089.25
 30
0.0
 11
1761.0
 21
1105.125
 31
0.0
 70
   128
 71
     5
 42
0.0
  3
Arch
100
AcDbAlignedDimension
 13
1717.0
 23
1134.75
 33
0.0
 14
1710.0
 24
1134.75
 34
0.0
100
AcDbRotatedDimension
1001
ACAD
1000
DSTYLE
1002
{
1070
   279
1070
     2
1070
   340
1005
35
1070
   174
1070
     0
1070
   147
1040
15.875
1002
}
  0
DIMENSION
  5
147
330
A
100
AcDbEntity
  8
寸法
  6
Continuous
 62
     7
370
    25
100
AcDbDimension
  2
*D11
 10
1705.0
 20
693.75
 30
0.0
 11
1713.375
 21
709.625
 31
0.0
 70
   128
 71
     5
 42
0.0
  3
Arch
100
AcDbAlignedDimension
 13
1699.0
 23
853.0
 33
0.0
 14
1705.0
 24
853.0
 34
0.0
100
AcDbRotatedDimension
1001
ACAD
1000
DSTYLE
1002
{
1070
   279
1070
     2
1070
   340
1005
35
1070
   174
1070
     0
1070
   147
1040
15.875
1002
}
  0
DIMENSION
  5
148
330
A
100
AcDbEntity
  8
寸法
  6
Continuous
 62
     7
370
    13
100
AcDbDimension
  2
*D12
 10
-74.95257216698519
 20
1259.0
 30
0.0
 11
-74.95257216698519
 21
1054.0
 31
0.0
 71
     5
 42
0.0
  3
Arch
100
AcDbAlignedDimension
 13
81.0474278330148
 23
849.0
 33
0.0
 14
81.0474278330148
 24
1259.0
 34
0.0
 50
90.0
100
AcDbRotatedDimension
1001
ACAD
1000
DSTYLE
1002
{
1070
   279
1070
     2
1070
   340
1005
35
1070
   147
1040
15.875
1002
}
  0
DIMENSION
  5
149
330
A
100
AcDbEntity
  8
寸法
  6
Continuous
 62
     7
370
    18
100
AcDbDimension
  2
*D13
 10
60.0
 20
651.1722829376615
 30
0.0
 11
158.0
 21
651.1722829376615
 31
0.0
 71
     5
 42
0.0
  3
Arch
100
AcDbAlignedDimension
 13
256.0
 23
806.084945435796
 33
0.0
 14
60.0
 24
890.0
 34
0.0
100
AcDbRotatedDimension
1001
ACAD
1000
DSTYLE
1002
{
1070
   279
1070
     2
1070
   340
1005
35
1070
   147
1040
15.875
1002
}
  0
LINE
  5
14A
330
A
100
AcDbEntity
  8
実形
  6
Continuous
 62
     7
370
    13
100
AcDbLine
 10
137.530610737618
 20
875.1902343008653
 30
0.0
 11
235.0
 21
935.0
 31
0.0
  0
SOLID
  5
14B
330
A
100
AcDbEntity
  8
実形
 62
     7
370
    13
100
AcDbTrace
 10
137.530610737618
 20
875.1902343008653
 30
0.0
 11
160.3640443841813
 21
898.834947009807
 31
0.0
 12
169.127300685639
 22
884.2504393487121
 32
0.0
 13
169.127300685639
 23
884.2504393487121
 33
0.0
  0
MTEXT
  5
14C
330
A
100
AcDbEntity
  8
実形
 62
     7
100
AcDbMText
 10
156.1452861053983
 20
924.6713993386675
 30
0.0
 40
24.4326171875
 41
0.0
 71
     1
 72
     1
  1
\U+ff3290
  7
ＭＳ ゴシック
 11
0.8660254037844387
 21
0.5
 31
0.0
 73
     1
 44
0.7828267384257845
1001
ACAD
1000
MTEXTBEGIN
1070
    73
1070
     1
1070
    44
1040
0.7828267384257845
1070
    74
1070
     0
1000
MTEXTEND
  0
LINE
  5
14D
330
A
100
AcDbEntity
  8
実形
  6
Continuous
 62
     7
370
    13
100
AcDbLine
 10
133.5363035473977
 20
1242.729497163278
 30
0.0
 11
238.259313529254
 21
1168.0
 31
0.0
  0
SOLID
  5
14E
330
A
100
AcDbEntity
  8
実形
 62
     7
370
    13
100
AcDbTrace
 10
133.5363035473977
 20
1242.729497163278
 30
0.0
 11
164.2231096504737
 21
1230.949935950201
 31
0.0
 12
154.2220765871308
 22
1217.184694855782
 32
0.0
 13
154.2220765871308
 23
1217.184694855782
 33
0.0
  0
MTEXT
  5
14F
330
A
100
AcDbEntity
  8
実形
 62
     7
100
AcDbMText
 10
193.6477621568122
 20
1240.305958439348
 30
0.0
 40
24.4326171875
 41
98.15745965952446
 71
     1
 72
     1
  1
R100
  7
ＭＳ ゴシック
 11
0.866025403784438
 21
-0.5000000000000015
 31
0.0
 73
     1
 44
0.7828267384257845
1001
ACAD
1000
MTEXTBEGIN
1070
    73
1070
     1
1070
    44
1040
0.7828267384257845
1070
    74
1070
     0
1000
MTEXTEND
  0
LINE
  5
150
330
A
100
AcDbEntity
  8
実形
  6
Continuous
 62
     7
370
    13
100
AcDbLine
 10
1062.831210914924
 20
1255.433924467521
 30
0.0
 11
930.0
 21
1173.925220427443
 31
0.0
  0
SOLID
  5
151
330
A
100
AcDbEntity
  8
実形
 62
     7
370
    13
100
AcDbTrace
 10
1062.831210914924
 20
1255.433924467521
 30
0.0
 11
1039.997777268361
 21
1231.789211758579
 31
0.0
 12
1031.234520966903
 22
1246.373719419674
 32
0.0
 13
1031.234520966903
 23
1246.373719419674
 33
0.0
  0
MTEXT
  5
152
330
A
100
AcDbEntity
  8
実形
 62
     7
100
AcDbMText
 10
873.3720052805676
 20
1154.639489242565
 30
0.0
 40
24.4326171875
 41
0.0
 71
     1
 72
     1
  1
R85
  7
ＭＳ ゴシック
 11
0.8660254037844378
 21
0.5000000000000015
 31
0.0
 73
     1
 44
0.7828267384257845
1001
ACAD
1000
MTEXTBEGIN
1070
    73
1070
     1
1070
    44
1040
0.7828267384257845
1070
    74
1070
     0
1000
MTEXTEND
  0
CIRCLE
  5
153
330
A
100
AcDbEntity
  8
実形
  6
Continuous
 62
     7
370
    13
100
AcDbCircle
 10
256.0
 20
1054.0
 30
0.0
 40
90.49999999999998
  0
CIRCLE
  5
154
330
A
100
AcDbEntity
  8
実形
  6
Continuous
 62
     7
370
    13
100
AcDbCircle
 10
256.0
 20
1054.0
 30
0.0
 40
79.50000000000001
  0
LWPOLYLINE
  5
155
330
A
100
AcDbEntity
  8
実形
  6
Continuous
 62
     7
370
    13
100
AcDbPolyline
 90
        8
 70
   129
 43
0.0
 10
60.0
 20
1205.0
 42
-0.4142135623730951
 10
145.0
 20
1290.0
 10
995.0
 20
1290.0
 42
-0.4142135623730951
 10
1080.0
 20
1205.0
 10
1080.0
 20
903.0
 42
-0.4142135623730951
 10
995.0
 20
818.0
 10
145.0
 20
818.0
 42
-0.4142135623730955
 10
60.0
 20
903.0
  0
LWPOLYLINE
  5
156
330
A
100
AcDbEntity
  8
実形
  6
Continuous
 62
     7
370
    13
100
AcDbPolyline
 90
        8
 70
   129
 43
0.0
 10
75.0
 20
1205.0
 42
-0.4142135623730951
 10
145.0
 20
1275.0
 10
995.0
 20
1275.0
 42
-0.4142135623730951
 10
1065.0
 20
1205.0
 10
1065.0
 20
903.0
 42
-0.4142135623730951
 10
995.0
 20
833.0
 10
145.0
 20
833.0
 42
-0.4142135623730955
 10
75.0
 20
903.0
  0
LINE
  5
157
330
A
100
AcDbEntity
  8
実形
  6
Continuous
 62
     7
370
    13
100
AcDbLine
 10
1050.390832559726
 20
860.1998169590316
 30
0.0
 11
930.0
 21
934.0747795725567
 31
0.0
  0
SOLID
  5
158
330
A
100
AcDbEntity
  8
実形
 62
     7
370
    13
100
AcDbTrace
 10
1050.390832559726
 20
860.1998169590316
 30
0.0
 11
1018.957077321526
 21
869.8100803688111
 31
0.0
 12
1027.973533691993
 22
884.239426828061
 32
0.0
 13
1027.973533691993
 23
884.239426828061
 33
0.0
  0
MTEXT
  5
159
330
A
100
AcDbEntity
  8
実形
 62
     7
100
AcDbMText
 10
888.7558724680673
 20
980.0061503430768
 30
0.0
 40
24.4326171875
 41
0.0
 71
     1
 72
     1
  1
R70
  7
ＭＳ ゴシック
 11
0.8660254037844376
 21
-0.5000000000000022
 31
0.0
 73
     1
 44
0.7828267384257845
1001
ACAD
1000
MTEXTBEGIN
1070
    73
1070
     1
1070
    44
1040
0.7828267384257845
1070
    74
1070
     0
1000
MTEXTEND
  0
DIMENSION
  5
15A
330
A
100
AcDbEntity
  8
寸法
  6
Continuous
 62
     7
370
    13
100
AcDbDimension
  2
*D14
 10
520.0
 20
1290.0
 30
0.0
 11
520.0
 21
1172.0
 31
0.0
 71
     5
 42
0.0
  3
Arch
100
AcDbAlignedDimension
 13
498.0
 23
1054.0
 33
0.0
 14
498.0
 24
1290.0
 34
0.0
 50
90.0
100
AcDbRotatedDimension
1001
ACAD
1000
DSTYLE
1002
{
1070
   279
1070
     2
1070
   340
1005
35
1070
   147
1040
15.875
1002
}
  0
POLYLINE
  5
15B
330
A
100
AcDbEntity
  8
実形
  6
Continuous
 62
     7
370
    25
100
AcDb2dPolyline
 66
     1
 10
0.0
 20
0.0
 30
0.0
 70
     1
 75
     5
  0
VERTEX
  5
15C
330
15B
100
AcDbEntity
  8
実形
  6
Continuous
 62
     7
370
    25
100
AcDbVertex
100
AcDb2dVertex
 10
105.0
 20
1054.0
 30
0.0
  0
VERTEX
  5
15D
330
15B
100
AcDbEntity
  8
実形
  6
Continuous
 62
     7
370
    25
100
AcDbVertex
100
AcDb2dVertex
 10
100.0
 20
1171.80487804878
 30
0.0
  0
VERTEX
  5
15E
330
15B
100
AcDbEntity
  8
実形
  6
Continuous
 62
     7
370
    25
100
AcDbVertex
100
AcDb2dVertex
 10
101.7479196536416
 20
1189.79125407856
 30
0.0
  0
VERTEX
  5
15F
330
15B
100
AcDbEntity
  8
実形
  6
Continuous
 62
     7
370
    25
100
AcDbVertex
100
AcDb2dVertex
 10
106.9245070425215
 20
1207.086423764391
 30
0.0
  0
VERTEX
  5
160
330
15B
100
AcDbEntity
  8
実形
  6
Continuous
 62
     7
370
    25
100
AcDbVertex
100
AcDb2dVertex
 10
115.3308288163491
 20
1223.02574343449
 30
0.0
  0
VERTEX
  5
161
330
15B
100
AcDbEntity
  8
実形
  6
Continuous
 62
     7
370
    25
100
AcDbVertex
100
AcDb2dVertex
 10
126.6438347436753
 20
1236.996673972808
 30
0.0
  0
VERTEX
  5
162
330
15B
100
AcDbEntity
  8
実形
  6
Continuous
 62
     7
370
    25
100
AcDbVertex
100
AcDb2dVertex
 10
140.4287723511199
 20
1248.462320353747
 30
0.0
  0
VERTEX
  5
163
330
15B
100
AcDbEntity
  8
実形
  6
Continuous
 62
     7
370
    25
100
AcDbVertex
100
AcDb2dVertex
 10
156.1558942171111
 20
1256.982064216894
 30
0.0
  0
VERTEX
  5
164
330
15B
100
AcDbEntity
  8
実形
  6
Continuous
 62
     7
370
    25
100
AcDbVertex
100
AcDb2dVertex
 10
173.2208158682102
 20
1262.228496583517
 30
0.0
  0
VERTEX
  5
165
330
15B
100
AcDbEntity
  8
実形
  6
Continuous
 62
     7
370
    25
100
AcDbVertex
100
AcDb2dVertex
 10
190.9677419354839
 20
1264.0
 30
0.0
  0
VERTEX
  5
166
330
15B
100
AcDbEntity
  8
実形
  6
Continuous
 62
     7
370
    25
100
AcDbVertex
100
AcDb2dVertex
 10
570.0
 20
1259.0
 30
0.0
  0
VERTEX
  5
167
330
15B
100
AcDbEntity
  8
実形
  6
Continuous
 62
     7
370
    25
100
AcDbVertex
100
AcDb2dVertex
 10
949.0322580645159
 20
1264.0
 30
0.0
  0
VERTEX
  5
168
330
15B
100
AcDbEntity
  8
実形
  6
Continuous
 62
     7
370
    25
100
AcDbVertex
100
AcDb2dVertex
 10
966.7791841317894
 20
1262.228496583517
 30
0.0
  0
VERTEX
  5
169
330
15B
100
AcDbEntity
  8
実形
  6
Continuous
 62
     7
370
    25
100
AcDbVertex
100
AcDb2dVertex
 10
983.8441057828887
 20
1256.982064216894
 30
0.0
  0
VERTEX
  5
16A
330
15B
100
AcDbEntity
  8
実形
  6
Continuous
 62
     7
370
    25
100
AcDbVertex
100
AcDb2dVertex
 10
999.57122764888
 20
1248.462320353747
 30
0.0
  0
VERTEX
  5
16B
330
15B
100
AcDbEntity
  8
実形
  6
Continuous
 62
     7
370
    25
100
AcDbVertex
100
AcDb2dVertex
 10
1013.356165256324
 20
1236.996673972808
 30
0.0
  0
VERTEX
  5
16C
330
15B
100
AcDbEntity
  8
実形
  6
Continuous
 62
     7
370
    25
100
AcDbVertex
100
AcDb2dVertex
 10
1024.669171183651
 20
1223.02574343449
 30
0.0
  0
VERTEX
  5
16D
330
15B
100
AcDbEntity
  8
実形
  6
Continuous
 62
     7
370
    25
100
AcDbVertex
100
AcDb2dVertex
 10
1033.075492957478
 20
1207.086423764391
 30
0.0
  0
VERTEX
  5
16E
330
15B
100
AcDbEntity
  8
実形
  6
Continuous
 62
     7
370
    25
100
AcDbVertex
100
AcDb2dVertex
 10
1038.252080346358
 20
1189.79125407856
 30
0.0
  0
VERTEX
  5
16F
330
15B
100
AcDbEntity
  8
実形
  6
Continuous
 62
     7
370
    25
100
AcDbVertex
100
AcDb2dVertex
 10
1040.0
 20
1171.80487804878
 30
0.0
  0
VERTEX
  5
170
330
15B
100
AcDbEntity
  8
実形
  6
Continuous
 62
     7
370
    25
100
AcDbVertex
100
AcDb2dVertex
 10
1035.0
 20
1054.0
 30
0.0
  0
VERTEX
  5
171
330
15B
100
AcDbEntity
  8
実形
  6
Continuous
 62
     7
370
    25
100
AcDbVertex
100
AcDb2dVertex
 10
1040.0
 20
936.1951219512192
 30
0.0
  0
VERTEX
  5
172
330
15B
100
AcDbEntity
  8
実形
  6
Continuous
 62
     7
370
    25
100
AcDbVertex
100
AcDb2dVertex
 10
1038.252080346358
 20
918.20874592144
 30
0.0
  0
VERTEX
  5
173
330
15B
100
AcDbEntity
  8
実形
  6
Continuous
 62
     7
370
    25
100
AcDbVertex
100
AcDb2dVertex
 10
1033.075492957478
 20
900.9135762356088
 30
0.0
  0
VERTEX
  5
174
330
15B
100
AcDbEntity
  8
実形
  6
Continuous
 62
     7
370
    25
100
AcDbVertex
100
AcDb2dVertex
 10
1024.669171183651
 20
884.9742565655098
 30
0.0
  0
VERTEX
  5
175
330
15B
100
AcDbEntity
  8
実形
  6
Continuous
 62
     7
370
    25
100
AcDbVertex
100
AcDb2dVertex
 10
1013.356165256324
 20
871.0033260271913
 30
0.0
  0
VERTEX
  5
176
330
15B
100
AcDbEntity
  8
実形
  6
Continuous
 62
     7
370
    25
100
AcDbVertex
100
AcDb2dVertex
 10
999.57122764888
 20
859.5376796462531
 30
0.0
  0
VERTEX
  5
177
330
15B
100
AcDbEntity
  8
実形
  6
Continuous
 62
     7
370
    25
100
AcDbVertex
100
AcDb2dVertex
 10
983.8441057828887
 20
851.0179357831058
 30
0.0
  0
VERTEX
  5
178
330
15B
100
AcDbEntity
  8
実形
  6
Continuous
 62
     7
370
    25
100
AcDbVertex
100
AcDb2dVertex
 10
966.7791841317894
 20
845.7715034164827
 30
0.0
  0
VERTEX
  5
179
330
15B
100
AcDbEntity
  8
実形
  6
Continuous
 62
     7
370
    25
100
AcDbVertex
100
AcDb2dVertex
 10
949.0322580645159
 20
844.0
 30
0.0
  0
VERTEX
  5
17A
330
15B
100
AcDbEntity
  8
実形
  6
Continuous
 62
     7
370
    25
100
AcDbVertex
100
AcDb2dVertex
 10
570.0
 20
849.0
 30
0.0
  0
VERTEX
  5
17B
330
15B
100
AcDbEntity
  8
実形
  6
Continuous
 62
     7
370
    25
100
AcDbVertex
100
AcDb2dVertex
 10
190.9677419354839
 20
844.0
 30
0.0
  0
VERTEX
  5
17C
330
15B
100
AcDbEntity
  8
実形
  6
Continuous
 62
     7
370
    25
100
AcDbVertex
100
AcDb2dVertex
 10
173.2208158682102
 20
845.7715034164827
 30
0.0
  0
VERTEX
  5
17D
330
15B
100
AcDbEntity
  8
実形
  6
Continuous
 62
     7
370
    25
100
AcDbVertex
100
AcDb2dVertex
 10
156.1558942171111
 20
851.0179357831058
 30
0.0
  0
VERTEX
  5
17E
330
15B
100
AcDbEntity
  8
実形
  6
Continuous
 62
     7
370
    25
100
AcDbVertex
100
AcDb2dVertex
 10
140.4287723511199
 20
859.5376796462531
 30
0.0
  0
VERTEX
  5
17F
330
15B
100
AcDbEntity
  8
実形
  6
Continuous
 62
     7
370
    25
100
AcDbVertex
100
AcDb2dVertex
 10
126.6438347436753
 20
871.0033260271913
 30
0.0
  0
VERTEX
  5
180
330
15B
100
AcDbEntity
  8
実形
  6
Continuous
 62
     7
370
    25
100
AcDbVertex
100
AcDb2dVertex
 10
115.3308288163491
 20
884.9742565655098
 30
0.0
  0
VERTEX
  5
181
330
15B
100
AcDbEntity
  8
実形
  6
Continuous
 62
     7
370
    25
100
AcDbVertex
100
AcDb2dVertex
 10
106.9245070425215
 20
900.9135762356088
 30
0.0
  0
VERTEX
  5
182
330
15B
100
AcDbEntity
  8
実形
  6
Continuous
 62
     7
370
    25
100
AcDbVertex
100
AcDb2dVertex
 10
101.7479196536416
 20
918.20874592144
 30
0.0
  0
VERTEX
  5
183
330
15B
100
AcDbEntity
  8
実形
  6
Continuous
 62
     7
370
    25
100
AcDbVertex
100
AcDb2dVertex
 10
100.0
 20
936.1951219512192
 30
0.0
  0
SEQEND
  5
184
330
15B
100
AcDbEntity
  8
実形
  6
Continuous
 62
     7
370
    25
  0
LWPOLYLINE
  5
185
330
A
100
AcDbEntity
  8
実形
  6
Continuous
 62
     7
370
    25
100
AcDbPolyline
 90
        8
 70
   129
 43
0.0
 10
105.0
 20
1159.0
 42
-0.4142135623730951
 10
205.0
 20
1259.0
 10
935.0
 20
1259.0
 42
-0.4142135623730951
 10
1035.0
 20
1159.0
 10
1035.0
 20
949.0
 42
-0.4142135623730951
 10
935.0
 20
849.0
 10
205.0
 20
849.0
 42
-0.4142135623730955
 10
105.0
 20
949.0
  0
POLYLINE
  5
186
330
A
100
AcDbEntity
  8
実形
  6
Continuous
 62
     7
370
    25
100
AcDb2dPolyline
 66
     1
 10
0.0
 20
0.0
 30
0.0
 70
     1
 75
     5
  0
VERTEX
  5
187
330
186
100
AcDbEntity
  8
実形
  6
Continuous
 62
     7
370
    25
100
AcDbVertex
100
AcDb2dVertex
 10
1515.0
 20
1259.0
 30
0.0
  0
VERTEX
  5
188
330
186
100
AcDbEntity
  8
実形
  6
Continuous
 62
     7
370
    25
100
AcDbVertex
100
AcDb2dVertex
 10
1530.0
 20
1259.0
 30
0.0
  0
VERTEX
  5
189
330
186
100
AcDbEntity
  8
実形
  6
Continuous
 62
     7
370
    25
100
AcDbVertex
100
AcDb2dVertex
 10
1530.0
 20
849.0
 30
0.0
  0
VERTEX
  5
18A
330
186
100
AcDbEntity
  8
実形
  6
Continuous
 62
     7
370
    25
100
AcDbVertex
100
AcDb2dVertex
 10
1515.0
 20
849.0
 30
0.0
  0
SEQEND
  5
18B
330
186
100
AcDbEntity
  8
実形
  6
Continuous
 62
     7
370
    25
  0
LWPOLYLINE
  5
18C
330
A
100
AcDbEntity
  8
実形
  6
Continuous
 62
     7
370
    25
100
AcDbPolyline
 90
        9
 70
   129
 43
0.0
 10
1530.0
 20
1254.0
 10
1680.0
 20
1254.0
 42
-0.4142135623730951
 10
1710.0
 20
1224.0
 10
1710.0
 20
1134.0
 10
1710.0
 20
1054.0
 10
1710.0
 20
974.0
 10
1701.498969138641
 20
881.2614815124515
 42
-0.3876863283132687
 10
1671.624222001747
 20
854.0
 10
1530.0
 20
854.0
  0
DIMENSION
  5
18D
330
A
100
AcDbEntity
  8
寸法
  6
Continuous
 62
     7
370
    13
100
AcDbDimension
  2
*D15
 10
1515.0
 20
692.0
 30
0.0
 11
1545.0
 21
707.875
 31
0.0
 70
   128
 71
     5
 42
0.0
  3
Arch
100
AcDbAlignedDimension
 13
1530.0
 23
818.0
 33
0.0
 14
1515.0
 24
818.0
 34
0.0
100
AcDbRotatedDimension
1001
ACAD
1000
DSTYLE
1002
{
1070
   279
1070
     2
1070
   340
1005
35
1070
   174
1070
     0
1070
   147
1040
15.875
1002
}
  0
DIMENSION
  5
18E
330
A
100
AcDbEntity
  8
寸法
  6
Continuous
 62
     7
370
    25
100
AcDbDimension
  2
*D16
 10
186.78499703676
 20
1112.305517447311
 30
0.0
 11
426.5623905428524
 21
963.8125000000004
 31
0.0
 70
     3
 71
     5
 42
0.0
  3
Arch
100
AcDbDiametricDimension
 15
325.2150029632399
 25
995.6944825526884
 35
0.0
 40
49.48621583927509
1001
ACAD
1000
DSTYLE
1002
{
1070
   289
1070
     0
1070
   342
1005
4D
1070
   340
1005
35
1070
    75
1070
     1
1070
    76
1070
     1
1070
     3
1000
φ<>
1070
   174
1070
     0
1070
   147
1040
15.875
1002
}
  0
DIMENSION
  5
18F
330
A
100
AcDbEntity
  8
寸法
  6
Continuous
 62
     7
370
    25
100
AcDbDimension
  2
*D17
 10
199.7850108956712
 20
997.7850108956712
 30
0.0
 11
396.5
 21
1131.0
 31
0.0
 70
     3
 71
     5
 42
0.0
  3
Arch
100
AcDbDiametricDimension
 15
312.2149891043289
 25
1110.214989104329
 35
0.0
 40
29.39444430273057
1001
ACAD
1000
DSTYLE
1002
{
1070
   289
1070
     0
1070
   342
1005
4D
1070
   340
1005
35
1070
    75
1070
     1
1070
    76
1070
     1
1070
     3
1000
φ<>
1070
   174
1070
     0
1070
   147
1040
15.875
1002
}
  0
LINE
  5
190
330
A
100
AcDbEntity
  8
一般
100
AcDbLine
 10
-280.5271077837249
 20
-210.2699857798924
 30
0.0
 11
2499.472892216275
 21
-210.2699857798924
 31
0.0
  0
LINE
  5
191
330
A
100
AcDbEntity
  8
一般
100
AcDbLine
 10
-280.5271077837249
 20
1709.730014220108
 30
0.0
 11
-280.5271077837249
 21
-210.2699857798924
 31
0.0
  0
LINE
  5
192
330
A
100
AcDbEntity
  8
一般
100
AcDbLine
 10
2499.472892216275
 20
1709.730014220108
 30
0.0
 11
-280.5271077837249
 21
1709.730014220108
 31
0.0
  0
LINE
  5
193
330
A
100
AcDbEntity
  8
一般
100
AcDbLine
 10
2499.472892216275
 20
-210.2699857798924
 30
0.0
 11
2499.472892216275
 21
1709.730014220108
 31
0.0
  0
LINE
  5
194
330
A
100
AcDbEntity
  8
一般
 62
     0
100
AcDbLine
 10
1899.472892216275
 20
-145.2699857798924
 30
0.0
 11
1899.472892216275
 21
-15.26998577989241
 31
0.0
  0
LINE
  5
195
330
A
100
AcDbEntity
  8
一般
 62
     0
100
AcDbLine
 10
1899.472892216275
 20
-145.2699857798924
 30
0.0
 11
2499.472892216275
 21
-145.2699857798924
 31
0.0
  0
LINE
  5
196
330
A
100
AcDbEntity
  8
一般
 62
     0
100
AcDbLine
 10
1779.472892216275
 20
-80.26998577989242
 30
0.0
 11
2499.472892216275
 21
-80.26998577989242
 31
0.0
  0
LINE
  5
197
330
A
100
AcDbEntity
  8
一般
 62
     0
100
AcDbLine
 10
1779.472892216275
 20
-15.26998577989241
 30
0.0
 11
2499.472892216275
 21
-15.26998577989241
 31
0.0
  0
LINE
  5
198
330
A
100
AcDbEntity
  8
一般
 62
     0
100
AcDbLine
 10
2499.472892216275
 20
-210.2699857798924
 30
0.0
 11
2499.472892216275
 21
-145.2699857798924
 31
0.0
  0
LINE
  5
199
330
A
100
AcDbEntity
  8
一般
 62
     0
100
AcDbLine
 10
2499.472892216275
 20
-80.26998577989242
 30
0.0
 11
2499.472892216275
 21
-15.26998577989241
 31
0.0
  0
LINE
  5
19A
330
A
100
AcDbEntity
  8
一般
 62
     0
100
AcDbLine
 10
1779.472892216275
 20
-145.2699857798924
 30
0.0
 11
2499.472892216275
 21
-145.2699857798924
 31
0.0
  0
LINE
  5
19B
330
A
100
AcDbEntity
  8
一般
 62
     0
100
AcDbLine
 10
1779.472892216275
 20
-210.2699857798924
 30
0.0
 11
1779.472892216275
 21
-15.26998577989241
 31
0.0
  0
MTEXT
  5
19C
330
A
100
AcDbEntity
  8
一般
 62
     0
100
AcDbMText
 10
2190.354211407996
 20
-99.3847065920753
 30
0.0
 40
35.0
 41
0.0
 71
     2
 72
     1
  1
1\U+ff1a10
  7
ＭＳ ゴシック
 73
     1
 44
0.7859706209094222
1001
ACAD
1000
MTEXTBEGIN
1070
    73
1070
     1
1070
    44
1040
0.7859706209094222
1070
    74
1070
     0
1000
MTEXTEND
  0
MTEXT
  5
19E
330
A
100
AcDbEntity
  8
一般
 62
     0
100
AcDbMText
 10
1792.472892216275
 20
-29.41898317572577
 30
0.0
 40
35.29155815972223
 41
0.0
 71
     1
 72
     1
  1
\U+54c1\U+756a
  7
ＭＳ ゴシック
 73
     1
 44
0.7828267384257841
1001
ACAD
1000
MTEXTBEGIN
1070
    73
1070
     1
1070
    44
1040
0.7828267384257841
1070
    74
1070
     0
1000
MTEXTEND
  0
MTEXT
  5
19F
330
A
100
AcDbEntity
  8
一般
 62
     0
100
AcDbMText
 10
1795.043670399274
 20
-97.22106650905914
 30
0.0
 40
35.29155815972223
 41
0.0
 71
     1
 72
     1
  1
\U+5c3a\U+5ea6
  7
ＭＳ ゴシック
 73
     1
 44
0.7828267384257841
1001
ACAD
1000
MTEXTBEGIN
1070
    73
1070
     1
1070
    44
1040
0.7828267384257841
1070
    74
1070
     0
1000
MTEXTEND
  0
MTEXT
  5
1A0
330
A
100
AcDbEntity
  8
一般
 62
     0
100
AcDbMText
 10
2186.417336660721
 20
-50.51998577989333
 30
0.0
 40
30.31684027777777
 41
0.0
 71
     5
 72
     1
  1
SSZ-102
  7
Arial
 73
     1
 44
0.9673603504928806
1001
ACAD
1000
MTEXTBEGIN
1070
    73
1070
     1
1070
    44
1040
0.9673603504928806
1070
    74
1070
     0
1000
MTEXTEND
  0
MTEXT
  5
1A1
330
A
100
AcDbEntity
  8
0
100
AcDbMText
 10
-190.5271077837248
 20
-138.796889333192
 30
0.0
 40
30.0
 41
0.0
 71
     1
 72
     1
  3
{\C7;\l\U+203B\U+5b9f\U+5bf8\U+306b\U+306f\U+88fd\U+9020\U+4e0a\U+306e\U+8aa4\U+5dee\U+304c\U+591a\U+5c11\U+751f\U+305a\U+308b\U+5834\U+5408\U+304c\U+3042\U+308a\U+307e\U+3059\U+3002\U+30b7\U+30f3\U+30af\U+306e\U+7a74\U+3042\U+3051\U+52a0\U+5de5\U+30
  1
6f\U+73fe\U+7269\U+5408\U+308f\U+305b\U+306b\U+3066\U+304a\U+9858\U+3044\U+3057\U+307e\U+3059\U+3002}
  7
ＭＳ ゴシック
 73
     1
 44
0.7922963146858741
1001
ACAD
1000
MTEXTBEGIN
1070
    73
1070
     1
1070
    44
1040
0.7922963146858741
1070
    74
1070
     0
1000
MTEXTEND
  0
MTEXT
  5
1A2
330
A
100
AcDbEntity
  8
実形
 62
     7
100
AcDbMText
 10
-184.1382188948355
 20
-73.46152223822581
 30
0.0
 40
27.14735243055556
 41
0.0
 71
     1
 72
     1
  1
\U+203B\U+30b7\U+30f3\U+30af\U+306b\U+6c34\U+6813\U+7a74\U+306f\U+8a2d\U+3051\U+3089\U+308c\U+307e\U+305b\U+3093\U+3002
  7
ＭＳ ゴシック
 73
     1
 44
0.7828267384257845
1001
ACAD
1000
MTEXTBEGIN
1070
    73
1070
     1
1070
    44
1040
0.7828267384257845
1070
    74
1070
     0
1000
MTEXTEND
  0
LINE
  5
1A3
330
A
100
AcDbEntity
  8
一般
 62
     0
100
AcDbLine
 10
2499.472892216275
 20
1644.730014220108
 30
0.0
 11
1779.472892216275
 21
1644.730014220108
 31
0.0
  0
LINE
  5
1A4
330
A
100
AcDbEntity
  8
一般
 62
     0
100
AcDbLine
 10
2499.472892216275
 20
1579.730014220108
 30
0.0
 11
1779.472892216275
 21
1579.730014220108
 31
0.0
  0
LINE
  5
1A5
330
A
100
AcDbEntity
  8
一般
 62
     0
100
AcDbLine
 10
1779.472892216275
 20
1514.730014220108
 30
0.0
 11
1779.472892216275
 21
1709.730014220108
 31
0.0
  0
LINE
  5
1A6
330
A
100
AcDbEntity
  8
一般
 62
     0
100
AcDbLine
 10
1949.472892216275
 20
1513.730014220108
 30
0.0
 11
1949.472892216275
 21
1709.730014220108
 31
0.0
  0
LINE
  5
1A7
330
A
100
AcDbEntity
  8
一般
 62
     0
100
AcDbLine
 10
2224.472892216275
 20
1514.730014220108
 30
0.0
 11
2224.472892216275
 21
1709.730014220108
 31
0.0
  0
WIPEOUT
  5
1A8
330
A
100
AcDbEntity
  8
一般
 62
     0
 92
      276
310
1401000003000000800000000A000000BD6DDB3DE41F9C40940243DF3CD09940000000000000000000000000000000000000000000000000000000000000F03F000000000000F03F000000000000000000000000000000000000000000000000000000000000F03F000000000000000041634462576970656F757420285769
310
70654F757429000000840000000600000005000000BD6DDB3DE41F9C40940243DF3CD099400000000000000000BC6D1B39F02E9E40940243DF3CD099400000000000000000BC6D1B39F02E9E40E903D988EB7F9A400000000000000000BD6DDB3DE41F9C40E903D988EB7F9A400000000000000000BD6DDB3DE41F9C409402
310
43DF3CD0994000000000000000000800000015000000
100
AcDbWipeout
 90
        0
 10
1799.972892216275
 20
2013.199125648666
 30
0.0
 11
131.7617006301879
 21
0.0
 31
0.0
 12
0.0
 22
131.7617006301879
 32
0.0
 13
1.0
 23
1.0
340
0
 70
     7
280
     1
281
    50
282
    50
283
     0
360
0
 71
     2
 91
        5
 14
-0.5
 24
3.240854728615328
 14
0.4999999999999992
 24
3.240854728615328
 14
0.4999999999999992
 24
2.907521380730267
 14
-0.5
 24
2.907521380730267
 14
-0.5
 24
3.240854728615328
  0
MTEXT
  5
1A9
330
A
100
AcDbEntity
  8
一般
 62
     0
100
AcDbMText
 10
1799.972892216275
 20
1692.006575262016
 30
0.0
 40
33.79825020482697
 41
0.0
 71
     1
 72
     1
  1
\U+90e8\U+54c1\U+540d
  7
ＭＳ ゴシック
 73
     1
 44
0.7828267384257845
1001
ACAD
1000
MTEXTBEGIN
1070
    73
1070
     1
1070
    44
1040
0.7828267384257845
1070
    74
1070
     0
1000
MTEXTEND
  0
WIPEOUT
  5
1AA
330
A
100
AcDbEntity
  8
一般
 62
     0
 92
      276
310
1401000003000000800000000A000000BD6DDB3DE4019C402492BCC179C39740000000000000000000000000000000000000000000000000000000000000F03F000000000000F03F000000000000000000000000000000000000000000000000000000000000F03F000000000000000041634462576970656F757420285769
310
70654F757429000000840000000600000005000000BD6DDB3DE4019C402492BCC179C39740000000000000000010C3309339289E402492BCC179C39740000000000000000010C3309339289E40EC03D988EB7A98400000000000000000BD6DDB3DE4019C40EC03D988EB7A98400000000000000000BD6DDB3DE4019C402492
310
BCC179C3974000000000000000000800000015000000
100
AcDbWipeout
 90
        0
 10
1792.472892216275
 20
1882.008583331645
 30
0.0
 11
137.5833333333332
 21
0.0
 31
0.0
 12
0.0
 22
137.5833333333332
 32
0.0
 13
1.0
 23
1.0
340
0
 70
     7
280
     1
281
    50
282
    50
283
     0
360
0
 71
     2
 91
        5
 14
-0.5
 24
3.124879565518945
 14
0.4999999999999984
 24
3.124879565518945
 14
0.4999999999999984
 24
2.791546232185611
 14
-0.5
 24
2.791546232185611
 14
-0.5
 24
3.124879565518945
  0
MTEXT
  5
1AB
330
A
100
AcDbEntity
  8
一般
 62
     0
100
AcDbMText
 10
1792.472892216275
 20
1562.581016824275
 30
0.0
 40
35.29155815972223
 41
0.0
 71
     1
 72
     1
  1
\U+30dc\U+30fc\U+30eb
  7
ＭＳ ゴシック
 73
     1
 44
0.7828267384257841
1001
ACAD
1000
MTEXTBEGIN
1070
    73
1070
     1
1070
    44
1040
0.7828267384257841
1070
    74
1070
     0
1000
MTEXTEND
  0
WIPEOUT
  5
1AC
330
A
100
AcDbEntity
  8
一般
 62
     0
 92
      276
310
1401000003000000800000000A000000C16DDB3DE4E99F405ACA7F505BCC9940000000000000000000000000000000000000000000000000000000000000F03F000000000000F03F000000000000000000000000000000000000000000000000000000000000F03F000000000000000041634462576970656F757420285769
310
70654F757429000000840000000600000005000000C16DDB3DE4E99F405ACA7F505BCC99400000000000000000A7280AE663ACA0405ACA7F505BCC99400000000000000000A7280AE663ACA040203C9C17CD839A400000000000000000C16DDB3DE4E99F40203C9C17CD839A400000000000000000C16DDB3DE4E99F405ACA
310
7F505BCC994000000000000000000800000015000000
100
AcDbWipeout
 90
        0
 10
2042.472892216276
 20
2012.228854490155
 30
0.0
 11
91.72222222222215
 21
0.0
 31
0.0
 12
0.0
 22
91.72222222222215
 32
0.0
 13
1.0
 23
1.0
340
0
 70
     7
280
     1
281
    50
282
    50
283
     0
360
0
 71
     2
 91
        5
 14
-0.5
 24
4.437319348278419
 14
0.5
 24
4.437319348278419
 14
0.5
 24
3.937319348278418
 14
-0.5
 24
3.937319348278418
 14
-0.5
 24
4.437319348278419
  0
MTEXT
  5
1AD
330
A
100
AcDbEntity
  8
一般
 62
     0
100
AcDbMText
 10
2042.472892216276
 20
1692.801287982784
 30
0.0
 40
35.29155815972223
 41
0.0
 71
     1
 72
     1
  1
\U+6750\U+8cea
  7
ＭＳ ゴシック
 73
     1
 44
0.7828267384257841
1001
ACAD
1000
MTEXTBEGIN
1070
    73
1070
     1
1070
    44
1040
0.7828267384257841
1070
    74
1070
     0
1000
MTEXTEND
  0
WIPEOUT
  5
1AE
330
A
100
AcDbEntity
  8
一般
 62
     0
 92
      276
310
1401000003000000800000000A000000DEB6ED1EF2B6A140BB0F80F423D39940000000000000000000000000000000000000000000000000000000000000F03F000000000000F03F000000000000000000000000000000000000000000000000000000000000F03F000000000000000041634462576970656F757420285769
310
70654F757429000000840000000600000005000000DEB6ED1EF2B6A140BB0F80F423D399400000000000000000DFB6ED1EF233A340BB0F80F423D399400000000000000000DFB6ED1EF233A340F49D632DB2989A400000000000000000DEB6ED1EF2B6A140F49D632DB2989A400000000000000000DEB6ED1EF2B6A140BB0F
310
80F423D3994000000000000000000800000015000000
100
AcDbWipeout
 90
        0
 10
2267.472892216275
 20
2013.924792604545
 30
0.0
 11
190.5000000000001
 21
0.0
 31
0.0
 12
0.0
 22
190.5000000000001
 32
0.0
 13
1.0
 23
1.0
340
0
 70
     7
280
     1
281
    50
282
    50
283
     0
360
0
 71
     2
 91
        5
 14
-0.5
 24
2.395746352874791
 14
0.5000000000000018
 24
2.395746352874791
 14
0.5000000000000018
 24
2.136487093615532
 14
-0.5
 24
2.136487093615532
 14
-0.5
 24
2.395746352874791
  0
MTEXT
  5
1AF
330
A
100
AcDbEntity
  8
一般
 62
     0
100
AcDbMText
 10
2267.472892216275
 20
1697.705850229118
 30
0.0
 40
35.29155815972223
 41
0.0
 71
     1
 72
     1
  1
\U+7d20\U+6750{\H1.077x;\l\U+5bf8\U+6cd5}
  7
ＭＳ ゴシック
 73
     1
 44
0.7828267384257845
1001
ACAD
1000
MTEXTBEGIN
1070
    73
1070
     1
1070
    44
1040
0.7828267384257845
1070
    74
1070
     0
1000
MTEXTEND
  0
WIPEOUT
  5
1B0
330
A
100
AcDbEntity
  8
一般
 62
     0
 92
      276
310
1401000003000000800000000A000000DC344D5A2B8E9F4006CB4AA532CB9840000000000000000000000000000000000000000000000000000000000000F03F000000000000F03F000000000000000000000000000000000000000000000000000000000000F03F000000000000000041634462576970656F757420285769
310
70654F757429000000840000000600000005000000DC344D5A2B8E9F4006CB4AA532CB984000000000000000001945D15740DAA04006CB4AA532CB984000000000000000001945D15740DAA040CC3C676CA48299400000000000000000DC344D5A2B8E9F40CC3C676CA48299400000000000000000DC344D5A2B8E9F4006CB
310
4AA532CB984000000000000000000800000015000000
100
AcDbWipeout
 90
        0
 10
2019.54233666072
 20
1947.9391388872
 30
0.0
 11
137.5833333333332
 21
0.0
 31
0.0
 12
0.0
 22
137.5833333333332
 32
0.0
 13
1.0
 23
1.0
340
0
 70
     7
280
     1
281
    50
282
    50
283
     0
360
0
 71
     2
 91
        5
 14
-0.5
 24
3.124879565518943
 14
0.5000000000000016
 24
3.124879565518943
 14
0.5000000000000016
 24
2.791546232185611
 14
-0.5
 24
2.791546232185611
 14
-0.5
 24
3.124879565518943
  0
MTEXT
  5
1B1
330
A
100
AcDbEntity
  8
一般
 62
     0
100
AcDbMText
 10
2019.54233666072
 20
1628.51157237983
 30
0.0
 40
35.29155815972223
 41
0.0
 71
     1
 72
     1
  1
SUS304
  7
ＭＳ ゴシック
 73
     1
 44
0.7828267384257841
1001
ACAD
1000
MTEXTBEGIN
1070
    73
1070
     1
1070
    44
1040
0.7828267384257841
1070
    74
1070
     0
1000
MTEXTEND
  0
WIPEOUT
  5
1B2
330
A
100
AcDbEntity
  8
一般
 62
     0
 92
      276
310
1401000003000000800000000A000000B98D29532DD0A140C739DA5ABFD79840000000000000000000000000000000000000000000000000000000000000F03F000000000000F03F000000000000000000000000000000000000000000000000000000000000F03F000000000000000041634462576970656F757420285769
310
70654F757429000000840000000600000005000000B98D29532DD0A140C739DA5ABFD798400000000000000000633894517109A340C739DA5ABFD798400000000000000000633894517109A3408EABF621318F99400000000000000000B98D29532DD0A1408EABF621318F99400000000000000000B98D29532DD0A140C739
310
DA5ABFD7984000000000000000000800000015000000
100
AcDbWipeout
 90
        0
 10
2280.08852510314
 20
1951.076550234718
 30
0.0
 11
156.6328004201253
 21
0.0
 31
0.0
 12
0.0
 22
156.6328004201253
 32
0.0
 13
1.0
 23
1.0
340
0
 70
     7
280
     1
281
    50
282
    50
283
     0
360
0
 71
     2
 91
        5
 14
-0.5
 24
2.805645300690455
 14
0.4999999999999984
 24
2.805645300690455
 14
0.4999999999999984
 24
2.512851511726069
 14
-0.5
 24
2.512851511726069
 14
-0.5
 24
2.805645300690455
  0
MTEXT
  5
1B3
330
A
100
AcDbEntity
  8
一般
 62
     0
100
AcDbMText
 10
2280.08852510314
 20
1631.648983727347
 30
0.0
 40
35.29155815972223
 41
0.0
 71
     1
 72
     1
  1
1.0{\H0.9577x;\l\U+ff4d\U+ff4d}
  7
ＭＳ ゴシック
 73
     1
 44
0.7828267384257841
1001
ACAD
1000
MTEXTBEGIN
1070
    73
1070
     1
1070
    44
1040
0.7828267384257841
1070
    74
1070
     0
1000
MTEXTEND
  0
LINE
  5
1B4
330
A
100
AcDbEntity
  8
一般
 62
     0
100
AcDbLine
 10
2499.472892216276
 20
1514.730014220108
 30
0.0
 11
1779.472892216275
 21
1514.730014220108
 31
0.0
  0
WIPEOUT
  5
1B5
330
A
100
AcDbEntity
  8
一般
 62
     0
 92
      276
310
1401000003000000800000000A00000010C33093B9529C4009CB4AA532D79840000000000000000000000000000000000000000000000000000000000000F03F000000000000F03F000000000000000000000000000000000000000000000000000000000000F03F000000000000000041634462576970656F757420285769
310
70654F75742900000084000000060000000500000010C33093B9529C4009CB4AA532D7984000000000000000009EA669219DC19D4009CB4AA532D7984000000000000000009EA669219DC19D40D03C676CA48E9940000000000000000010C33093B9529C40D03C676CA48E9940000000000000000010C33093B9529C4009CB
310
4AA532D7984000000000000000000800000015000000
100
AcDbWipeout
 90
        0
 10
1812.681225549608
 20
1950.939138887201
 30
0.0
 11
91.72222222222215
 21
0.0
 31
0.0
 12
0.0
 22
91.72222222222215
 32
0.0
 13
1.0
 23
1.0
340
0
 70
     7
280
     1
281
    50
282
    50
283
     0
360
0
 71
     2
 91
        5
 14
-0.5
 24
4.437319348278417
 14
0.5
 24
4.437319348278417
 14
0.5
 24
3.937319348278418
 14
-0.5
 24
3.937319348278418
 14
-0.5
 24
4.437319348278417
  0
MTEXT
  5
1B6
330
A
100
AcDbEntity
  8
一般
 62
     0
100
AcDbMText
 10
1812.681225549608
 20
1631.511572379831
 30
0.0
 40
35.29155815972223
 41
0.0
 71
     1
 72
     1
  1
\U+5929\U+677f
  7
ＭＳ ゴシック
 73
     1
 44
0.7828267384257841
1001
ACAD
1000
MTEXTBEGIN
1070
    73
1070
     1
1070
    44
1040
0.7828267384257841
1070
    74
1070
     0
1000
MTEXTEND
  0
WIPEOUT
  5
1B7
330
A
100
AcDbEntity
  8
一般
 62
     0
 92
      276
310
1401000003000000800000000A00000016C33093B9929F4007CB4AA532CB9740000000000000000000000000000000000000000000000000000000000000F03F000000000000F03F000000000000000000000000000000000000000000000000000000000000F03F000000000000000041634462576970656F757420285769
310
70654F75742900000084000000060000000500000016C33093B9929F4007CB4AA532CB97400000000000000000350C437487DCA04007CB4AA532CB97400000000000000000350C437487DCA040CD3C676CA4829840000000000000000016C33093B9929F40CD3C676CA4829840000000000000000016C33093B9929F4007CB
310
4AA532CB974000000000000000000800000015000000
100
AcDbWipeout
 90
        0
 10
2020.681225549609
 20
1883.9391388872
 30
0.0
 11
137.5833333333332
 21
0.0
 31
0.0
 12
0.0
 22
137.5833333333332
 32
0.0
 13
1.0
 23
1.0
340
0
 70
     7
280
     1
281
    50
282
    50
283
     0
360
0
 71
     2
 91
        5
 14
-0.5
 24
3.124879565518943
 14
0.5
 24
3.124879565518943
 14
0.5
 24
2.791546232185611
 14
-0.5
 24
2.791546232185611
 14
-0.5
 24
3.124879565518943
  0
MTEXT
  5
1B8
330
A
100
AcDbEntity
  8
一般
 62
     0
100
AcDbMText
 10
2020.681225549609
 20
1564.51157237983
 30
0.0
 40
35.29155815972223
 41
0.0
 71
     1
 72
     1
  1
SUS304
  7
ＭＳ ゴシック
 73
     1
 44
0.7828267384257841
1001
ACAD
1000
MTEXTBEGIN
1070
    73
1070
     1
1070
    44
1040
0.7828267384257841
1070
    74
1070
     0
1000
MTEXTEND
  0
WIPEOUT
  5
1B9
330
A
100
AcDbEntity
  8
一般
 62
     0
 92
      276
310
1401000003000000800000000A000000B98D29532DD0A14005CB4AA532C39740000000000000000000000000000000000000000000000000000000000000F03F000000000000F03F000000000000000000000000000000000000000000000000000000000000F03F000000000000000041634462576970656F757420285769
310
70654F757429000000840000000600000005000000B98D29532DD0A14005CB4AA532C397400000000000000000633894517109A34005CB4AA532C397400000000000000000633894517109A340CB3C676CA47A98400000000000000000B98D29532DD0A140CB3C676CA47A98400000000000000000B98D29532DD0A14005CB
310
4AA532C3974000000000000000000800000015000000
100
AcDbWipeout
 90
        0
 10
2280.08852510314
 20
1881.9391388872
 30
0.0
 11
156.6328004201253
 21
0.0
 31
0.0
 12
0.0
 22
156.6328004201253
 32
0.0
 13
1.0
 23
1.0
340
0
 70
     7
280
     1
281
    50
282
    50
283
     0
360
0
 71
     2
 91
        5
 14
-0.5
 24
2.805645300690454
 14
0.4999999999999984
 24
2.805645300690454
 14
0.4999999999999984
 24
2.512851511726069
 14
-0.5
 24
2.512851511726069
 14
-0.5
 24
2.805645300690454
  0
MTEXT
  5
1BA
330
A
100
AcDbEntity
  8
一般
 62
     0
100
AcDbMText
 10
2280.08852510314
 20
1562.51157237983
 30
0.0
 40
35.29155815972223
 41
0.0
 71
     1
 72
     1
  1
0.7{\H0.9577x;\l\U+ff4d\U+ff4d}
  7
ＭＳ ゴシック
 73
     1
 44
0.7828267384257841
1001
ACAD
1000
MTEXTBEGIN
1070
    73
1070
     1
1070
    44
1040
0.7828267384257841
1070
    74
1070
     0
1000
MTEXTEND
  0
MTEXT
  5
1EC
330
A
100
AcDbEntity
  8
実形
100
AcDbMText
 10
1879.269928424639
 20
-153.2090771473466
 30
0.0
 40
25.0
 41
478.1902000108686
 71
     1
 72
     5
  1
\pl25;{\fRomantic|b0|i0|c2|p2;\H1.8x;E:kitchen\fArial|b0|i0|c0|p32;\H0.7778x; \H0.3428x;U-ARCHI INC.\Ftxt.shx,bigfont.shx|c128;\H0.6945x;}
 73
     1
 44
1.0
  0
ENDSEC
  0
SECTION
  2
OBJECTS
  0
DICTIONARY
  5
19
330
0
100
AcDbDictionary
281
     1
  3
ACAD_COLOR
350
1BE
  3
ACAD_GROUP
350
1A
  3
ACAD_LAYOUT
350
1E
  3
ACAD_MATERIAL
350
1BD
  3
ACAD_MLINESTYLE
350
1B
  3
ACAD_PLOTSETTINGS
350
22
  3
ACAD_PLOTSTYLENAME
350
1F
  3
ACAD_WIPEOUT_VARS
350
23
  3
AcDbVariableDictionary
350
1C4
  0
DICTIONARY
  5
1E1
330
2
100
AcDbDictionary
280
     1
281
     1
  3
ACAD_LAYERSTATES
360
1E2
  0
DICTIONARY
  5
1BE
102
{ACAD_REACTORS
330
19
102
}
330
19
100
AcDbDictionary
281
     1
  0
DICTIONARY
  5
1A
102
{ACAD_REACTORS
330
19
102
}
330
19
100
AcDbDictionary
281
     1
  0
DICTIONARY
  5
1E
102
{ACAD_REACTORS
330
19
102
}
330
19
100
AcDbDictionary
281
     1
  3
Layout1
350
21
  3
Model
350
20
  0
DICTIONARY
  5
1BD
102
{ACAD_REACTORS
330
19
102
}
330
19
100
AcDbDictionary
281
     1
  0
DICTIONARY
  5
1B
102
{ACAD_REACTORS
330
19
102
}
330
19
100
AcDbDictionary
281
     1
  3
Standard
350
1C
  0
DICTIONARY
  5
22
102
{ACAD_REACTORS
330
19
102
}
330
19
100
AcDbDictionary
281
     1
  0
ACDBDICTIONARYWDFLT
  5
1F
102
{ACAD_REACTORS
330
19
102
}
330
19
100
AcDbDictionary
281
     1
  3
Normal
350
1D
100
AcDbDictionaryWithDefault
340
1D
  0
WIPEOUTVARIABLES
  5
23
330
19
100
AcDbWipeoutVariables
 70
     0
  0
DICTIONARY
  5
1C4
102
{ACAD_REACTORS
330
19
102
}
330
19
100
AcDbDictionary
281
     1
  3
DIMASSOC
350
1C5
  3
PROJECTNAME
350
1C6
  0
DICTIONARY
  5
1E2
102
{ACAD_REACTORS
330
1E1
102
}
330
1E1
100
AcDbDictionary
281
     1
  0
LAYOUT
  5
21
102
{ACAD_REACTORS
330
1E
102
}
330
1E
100
AcDbPlotSettings
  1

  2

  4

  6

 40
0.0
 41
0.0
 42
0.0
 43
0.0
 44
0.0
 45
0.0
 46
0.0
 47
0.0
 48
0.0
 49
0.0
140
0.0
141
0.0
142
1.0
143
1.0
 70
     0
 72
     0
 73
     0
 74
     0
  7

 75
     0
147
1.0
 76
     0
 77
     2
 78
   300
148
0.0
149
0.0
100
AcDbLayout
  1
Layout1
 70
     0
 71
     1
 10
0.0
 20
0.0
 11
12.0
 21
9.0
 12
0.0
 22
0.0
 32
0.0
 14
1.000000000000000E+20
 24
1.000000000000000E+20
 34
1.000000000000000E+20
 15
-1.000000000000000E+20
 25
-1.000000000000000E+20
 35
-1.000000000000000E+20
146
0.0
 13
0.0
 23
0.0
 33
0.0
 16
1.0
 26
0.0
 36
0.0
 17
0.0
 27
1.0
 37
0.0
 76
     0
330
B
  0
LAYOUT
  5
20
102
{ACAD_REACTORS
330
1E
102
}
330
1E
100
AcDbPlotSettings
  1

  2

  4

  6

 40
0.0
 41
0.0
 42
0.0
 43
0.0
 44
0.0
 45
0.0
 46
0.0
 47
0.0
 48
0.0
 49
0.0
140
0.0
141
0.0
142
1.0
143
1.0
 70
  1024
 72
     0
 73
     0
 74
     0
  7

 75
     0
147
1.0
 76
     0
 77
     2
 78
   300
148
0.0
149
0.0
100
AcDbLayout
  1
Model
 70
     0
 71
     0
 10
0.0
 20
0.0
 11
0.0
 21
0.0
 12
0.0
 22
0.0
 32
0.0
 14
0.0
 24
0.0
 34
0.0
 15
0.0
 25
0.0
 35
0.0
146
0.0
 13
0.0
 23
0.0
 33
0.0
 16
0.0
 26
0.0
 36
0.0
 17
0.0
 27
0.0
 37
0.0
 76
     0
330
A
  0
MLINESTYLE
  5
1C
102
{ACAD_REACTORS
330
1B
102
}
330
1B
100
AcDbMlineStyle
  2
STANDARD
 70
     0
  3

 62
     0
 51
90.0
 52
90.0
 71
     2
 49
0.5
 62
   256
  6
BYLAYER
 49
-0.5
 62
   256
  6
BYLAYER
  0
ACDBPLACEHOLDER
  5
1D
102
{ACAD_REACTORS
330
1F
102
}
330
1F
  0
DICTIONARYVAR
  5
1C5
102
{ACAD_REACTORS
330
1C4
102
}
330
1C4
100
DictionaryVariables
280
     0
  1
1
  0
DICTIONARYVAR
  5
1C6
102
{ACAD_REACTORS
330
1C4
102
}
330
1C4
100
DictionaryVariables
280
     0
  1

  0
ENDSEC
  0
EOF
