  0
SECTION
  2
HEADER
  9
$ACADVER
  1
AC1018
  9
$ACADMAINTVER
 70
     0
  9
$DWGCODEPAGE
  3
ANSI_932
  9
$INSBASE
 10
0.0
 20
0.0
 30
0.0
  9
$EXTMIN
 10
-280.5271077837249
 20
-211.754037270825
 30
0.0
  9
$EXTMAX
 10
2499.472892216276
 20
1709.730014220108
 30
0.0
  9
$LIMMIN
 10
0.0
 20
0.0
  9
$LIMMAX
 10
0.0
 20
0.0
  9
$ORTHOMODE
 70
     0
  9
$REGENMODE
 70
     1
  9
$FILLMODE
 70
     1
  9
$QTEXTMODE
 70
     0
  9
$MIRRTEXT
 70
     1
  9
$LTSCALE
 40
127.0
  9
$ATTMODE
 70
     1
  9
$TEXTSIZE
 40
0.0
  9
$TRACEWID
 40
1.0
  9
$TEXTSTYLE
  7
Standard
  9
$CLAYER
  8
一般
  9
$CELTYPE
  6
Continuous
  9
$CECOLOR
 62
   256
  9
$CELTSCALE
 40
1.0
  9
$DISPSILH
 70
     0
  9
$DIMSCALE
 40
1.0
  9
$DIMASZ
 40
22.4482421875
  9
$DIMEXO
 40
15.875
  9
$DIMDLI
 40
10.16
  9
$DIMRND
 40
0.0
  9
$DIMDLE
 40
1.587499999999999
  9
$DIMEXE
 40
31.75
  9
$DIMTP
 40
0.0
  9
$DIMTM
 40
0.0
  9
$DIMTXT
 40
24.4326171875
  9
$DIMCEN
 40
0.0
  9
$DIMTSZ
 40
0.0
  9
$DIMTOL
 70
     0
  9
$DIMLIM
 70
     0
  9
$DIMTIH
 70
     0
  9
$DIMTOH
 70
     0
  9
$DIMSE1
 70
     0
  9
$DIMSE2
 70
     0
  9
$DIMTAD
 70
     1
  9
$DIMZIN
 70
    11
  9
$DIMBLK
  1
VW_SLASH
  9
$DIMASO
 70
     1
  9
$DIMSHO
 70
     1
  9
$DIMPOST
  1
<>
  9
$DIMAPOST
  1
[]
  9
$DIMALT
 70
     0
  9
$DIMALTD
 70
     3
  9
$DIMALTF
 40
0.0393700787401575
  9
$DIMLFAC
 40
1.0
  9
$DIMTOFL
 70
     1
  9
$DIMTVP
 40
0.0
  9
$DIMTIX
 70
     1
  9
$DIMSOXD
 70
     0
  9
$DIMSAH
 70
     0
  9
$DIMBLK1
  1

  9
$DIMBLK2
  1

  9
$DIMSTYLE
  2
Arch
  9
$DIMCLRD
 70
     0
  9
$DIMCLRE
 70
     0
  9
$DIMCLRT
 70
     0
  9
$DIMTFAC
 40
0.8
  9
$DIMGAP
 40
1.587499999999999
  9
$DIMJUST
 70
     0
  9
$DIMSD1
 70
     0
  9
$DIMSD2
 70
     0
  9
$DIMTOLJ
 70
     1
  9
$DIMTZIN
 70
    11
  9
$DIMALTZ
 70
    15
  9
$DIMALTTZ
 70
    15
  9
$DIMUPT
 70
     0
  9
$DIMDEC
 70
     1
  9
$DIMTDEC
 70
     1
  9
$DIMALTU
 70
     4
  9
$DIMALTTD
 70
     2
  9
$DIMTXSTY
  7
ＭＳ ゴシック
  9
$DIMAUNIT
 70
     0
  9
$DIMADEC
 70
     2
  9
$DIMALTRND
 40
0.0
  9
$DIMAZIN
 70
     0
  9
$DIMDSEP
 70
    46
  9
$DIMATFIT
 70
     0
  9
$DIMFRAC
 70
     2
  9
$DIMLDRBLK
  1

  9
$DIMLUNIT
 70
     2
  9
$DIMLWD
 70
    -2
  9
$DIMLWE
 70
    -2
  9
$DIMTMOVE
 70
     0
  9
$LUNITS
 70
     2
  9
$LUPREC
 70
     4
  9
$SKETCHINC
 40
0.1
  9
$FILLETRAD
 40
0.0
  9
$AUNITS
 70
     0
  9
$AUPREC
 70
     0
  9
$MENU
  1
acad
  9
$ELEVATION
 40
0.0
  9
$PELEVATION
 40
0.0
  9
$THICKNESS
 40
0.0
  9
$LIMCHECK
 70
     0
  9
$CHAMFERA
 40
0.0
  9
$CHAMFERB
 40
0.0
  9
$CHAMFERC
 40
0.0
  9
$CHAMFERD
 40
0.0
  9
$SKPOLY
 70
     0
  9
$TDCREATE
 40
2454847.615078843
  9
$TDUCREATE
 40
2454847.240078843
  9
$TDUPDATE
 40
2455933.899946285
  9
$TDUUPDATE
 40
2455933.524946285
  9
$TDINDWG
 40
0.0013934144
  9
$TDUSRTIMER
 40
0.0013883565
  9
$USRTIMER
 70
     1
  9
$ANGBASE
 50
0.0
  9
$ANGDIR
 70
     0
  9
$PDMODE
 70
     1
  9
$PDSIZE
 40
-2.0
  9
$PLINEWID
 40
0.0
  9
$SPLFRAME
 70
     0
  9
$SPLINETYPE
 70
     6
  9
$SPLINESEGS
 70
     8
  9
$HANDSEED
  5
278
  9
$SURFTAB1
 70
     6
  9
$SURFTAB2
 70
     6
  9
$SURFTYPE
 70
     6
  9
$SURFU
 70
     6
  9
$SURFV
 70
     6
  9
$UCSBASE
  2

  9
$UCSNAME
  2

  9
$UCSORG
 10
0.0
 20
0.0
 30
0.0
  9
$UCSXDIR
 10
1.0
 20
0.0
 30
0.0
  9
$UCSYDIR
 10
0.0
 20
1.0
 30
0.0
  9
$UCSORTHOREF
  2

  9
$UCSORTHOVIEW
 70
     0
  9
$UCSORGTOP
 10
0.0
 20
0.0
 30
0.0
  9
$UCSORGBOTTOM
 10
0.0
 20
0.0
 30
0.0
  9
$UCSORGLEFT
 10
0.0
 20
0.0
 30
0.0
  9
$UCSORGRIGHT
 10
0.0
 20
0.0
 30
0.0
  9
$UCSORGFRONT
 10
0.0
 20
0.0
 30
0.0
  9
$UCSORGBACK
 10
0.0
 20
0.0
 30
0.0
  9
$PUCSBASE
  2

  9
$PUCSNAME
  2

  9
$PUCSORG
 10
0.0
 20
0.0
 30
0.0
  9
$PUCSXDIR
 10
1.0
 20
0.0
 30
0.0
  9
$PUCSYDIR
 10
0.0
 20
1.0
 30
0.0
  9
$PUCSORTHOREF
  2

  9
$PUCSORTHOVIEW
 70
     0
  9
$PUCSORGTOP
 10
0.0
 20
0.0
 30
0.0
  9
$PUCSORGBOTTOM
 10
0.0
 20
0.0
 30
0.0
  9
$PUCSORGLEFT
 10
0.0
 20
0.0
 30
0.0
  9
$PUCSORGRIGHT
 10
0.0
 20
0.0
 30
0.0
  9
$PUCSORGFRONT
 10
0.0
 20
0.0
 30
0.0
  9
$PUCSORGBACK
 10
0.0
 20
0.0
 30
0.0
  9
$USERI1
 70
     0
  9
$USERI2
 70
     0
  9
$USERI3
 70
     0
  9
$USERI4
 70
     0
  9
$USERI5
 70
     0
  9
$USERR1
 40
0.0
  9
$USERR2
 40
0.0
  9
$USERR3
 40
0.0
  9
$USERR4
 40
0.0
  9
$USERR5
 40
0.0
  9
$WORLDVIEW
 70
     1
  9
$SHADEDGE
 70
     3
  9
$SHADEDIF
 70
    70
  9
$TILEMODE
 70
     1
  9
$MAXACTVP
 70
    16
  9
$PINSBASE
 10
0.0
 20
0.0
 30
0.0
  9
$PLIMCHECK
 70
     0
  9
$PEXTMIN
 10
1.000000000000000E+20
 20
1.000000000000000E+20
 30
1.000000000000000E+20
  9
$PEXTMAX
 10
-1.000000000000000E+20
 20
-1.000000000000000E+20
 30
-1.000000000000000E+20
  9
$PLIMMIN
 10
0.0
 20
0.0
  9
$PLIMMAX
 10
12.0
 20
9.0
  9
$UNITMODE
 70
     0
  9
$VISRETAIN
 70
     0
  9
$PLINEGEN
 70
     1
  9
$PSLTSCALE
 70
     0
  9
$TREEDEPTH
 70
  3020
  9
$CMLSTYLE
  2
Standard
  9
$CMLJUST
 70
     0
  9
$CMLSCALE
 40
1.0
  9
$PROXYGRAPHICS
 70
     0
  9
$MEASUREMENT
 70
     1
  9
$CELWEIGHT
370
     0
  9
$ENDCAPS
280
     0
  9
$JOINSTYLE
280
     0
  9
$LWDISPLAY
290
     1
  9
$INSUNITS
 70
     4
  9
$HYPERLINKBASE
  1

  9
$STYLESHEET
  1

  9
$XEDIT
290
     1
  9
$CEPSNTYPE
380
     0
  9
$PSTYLEMODE
290
     1
  9
$FINGERPRINTGUID
  2

  9
$VERSIONGUID
  2
{3CF85950-CB1E-4904-A722-D5B04B95857F}
  9
$EXTNAMES
290
     1
  9
$PSVPSCALE
 40
0.0
  9
$OLESTARTUP
290
     0
  9
$SORTENTS
280
   127
  9
$INDEXCTL
280
     0
  9
$HIDETEXT
280
     0
  9
$XCLIPFRAME
290
     0
  9
$HALOGAP
280
     0
  9
$OBSCOLOR
 70
   257
  9
$OBSLTYPE
280
     0
  9
$INTERSECTIONDISPLAY
280
     0
  9
$INTERSECTIONCOLOR
 70
   257
  9
$DIMASSOC
280
     1
  9
$PROJECTNAME
  1

  0
ENDSEC
  0
SECTION
  2
CLASSES
  0
CLASS
  1
IMAGE
  2
AcDbRasterImage
  3
ISM
 90
      127
 91
        0
280
     0
281
     1
  0
CLASS
  1
DICTIONARYVAR
  2
AcDbDictionaryVar
  3
ObjectDBX Classes
 90
        0
 91
        2
280
     0
281
     0
  0
CLASS
  1
RASTERVARIABLES
  2
AcDbRasterVariables
  3
ISM
 90
        0
 91
        0
280
     0
281
     0
  0
CLASS
  1
IMAGEDEF
  2
AcDbRasterImageDef
  3
ISM
 90
        0
 91
        0
280
     0
281
     0
  0
CLASS
  1
IMAGEDEF_REACTOR
  2
AcDbRasterImageDefReactor
  3
ISM
 90
        1
 91
        0
280
     0
281
     0
  0
CLASS
  1
IDBUFFER
  2
AcDbIdBuffer
  3
ObjectDBX Classes
 90
        0
 91
        0
280
     0
281
     0
  0
CLASS
  1
SPATIAL_FILTER
  2
AcDbSpatialFilter
  3
ObjectDBX Classes
 90
        0
 91
        0
280
     0
281
     0
  0
CLASS
  1
SORTENTSTABLE
  2
AcDbSortentsTable
  3
ObjectDBX Classes
 90
        0
 91
        0
280
     0
281
     0
  0
CLASS
  1
LAYER_INDEX
  2
AcDbLayerIndex
  3
ObjectDBX Classes
 90
        0
 91
        0
280
     0
281
     0
  0
CLASS
  1
SPATIAL_INDEX
  2
AcDbSpatialIndex
  3
ObjectDBX Classes
 90
        0
 91
        0
280
     0
281
     0
  0
CLASS
  1
OBJECT_PTR
  2
CAseDLPNTableRecord
  3
"ASE-LPNTableRecord"
 90
        1
 91
        0
280
     0
281
     0
  0
CLASS
  1
PLOTSETTINGS
  2
AcDbPlotSettings
  3
ObjectDBX Classes
 90
        0
 91
        0
280
     0
281
     0
  0
CLASS
  1
ACDBDICTIONARYWDFLT
  2
AcDbDictionaryWithDefault
  3
ObjectDBX Classes
 90
        0
 91
        1
280
     0
281
     0
  0
CLASS
  1
WIPEOUT
  2
AcDbWipeout
  3
"WipeOut|Product Desc: Object Enabler for WipeOut entity^I^I^I^I^I^I|Company: Autodesk, Inc.^I^I^I^I^I^I|WEB Address: www.autodesk.com"
 90
      127
 91
       45
280
     0
281
     1
  0
CLASS
  1
WIPEOUTVARIABLES
  2
AcDbWipeoutVariables
  3
"WipeOut|Product Desc:     WipeOut Dbx Application|Company:          Autodesk, Inc.|WEB Address:      www.autodesk.com"
 90
        0
 91
        1
280
     0
281
     0
  0
CLASS
  1
RTEXT
  2
RText
  3
RText|AutoCAD Express Tool|expresstools@autodesk.com
 90
        0
 91
        0
280
     0
281
     1
  0
CLASS
  1
ARCALIGNEDTEXT
  2
AcDbArcAlignedText
  3
ATEXT|AutoCAD Express Tool|expresstools@autodesk.com
 90
        0
 91
        0
280
     0
281
     1
  0
ENDSEC
  0
SECTION
  2
TABLES
  0
TABLE
  2
VPORT
  5
7
330
0
100
AcDbSymbolTable
 70
     4
  0
VPORT
  5
277
330
7
100
AcDbSymbolTableRecord
100
AcDbViewportTableRecord
  2
*Active
 70
     0
 10
0.0
 20
0.0
 11
1.0
 21
1.0
 12
1109.472898688966
 22
791.8753243016656
 13
0.0
 23
0.0
 14
1.0
 24
1.0
 15
0.0
 25
0.0
 16
0.0
 26
0.0
 36
1.0
 17
0.0
 27
0.0
 37
0.0
 40
2024.131194582853
 41
1.672413793103448
 42
50.0
 43
0.0
 44
0.0
 50
0.0
 51
0.0
 71
     0
 72
   100
 73
     1
 74
     1
 75
     0
 76
     0
 77
     0
 78
     0
281
     0
 65
     0
110
0.0
120
0.0
130
0.0
111
1.0
121
0.0
131
0.0
112
0.0
122
1.0
132
0.0
 79
     0
146
0.0
  0
ENDTAB
  0
TABLE
  2
LTYPE
  5
4
330
0
100
AcDbSymbolTable
 70
    11
  0
LTYPE
  5
11
330
4
100
AcDbSymbolTableRecord
100
AcDbLinetypeTableRecord
  2
ByBlock
 70
     0
  3

 72
    65
 73
     0
 40
0.0
  0
LTYPE
  5
12
330
4
100
AcDbSymbolTableRecord
100
AcDbLinetypeTableRecord
  2
ByLayer
 70
     0
  3

 72
    65
 73
     0
 40
0.0
  0
LTYPE
  5
13
330
4
100
AcDbSymbolTableRecord
100
AcDbLinetypeTableRecord
  2
Continuous
 70
     0
  3
Solid line
 72
    65
 73
     0
 40
0.0
  0
LTYPE
  5
41
330
4
100
AcDbSymbolTableRecord
100
AcDbLinetypeTableRecord
  2
STYLE_01
 70
     0
  3

 72
    65
 73
     2
 40
0.4429133858267717
 49
0.2952755905511811
 74
     0
 49
-0.1476377952755906
 74
     0
  0
LTYPE
  5
42
330
4
100
AcDbSymbolTableRecord
100
AcDbLinetypeTableRecord
  2
STYLE_02
 70
     0
  3

 72
    65
 73
     2
 40
0.2214566929133859
 49
0.1476377952755906
 74
     0
 49
-0.0738188976377953
 74
     0
  0
LTYPE
  5
43
330
4
100
AcDbSymbolTableRecord
100
AcDbLinetypeTableRecord
  2
STYLE_03
 70
     0
  3

 72
    65
 73
     2
 40
0.1476377952755906
 49
0.0002
 74
     0
 49
-0.1474377952755906
 74
     0
  0
LTYPE
  5
44
330
4
100
AcDbSymbolTableRecord
100
AcDbLinetypeTableRecord
  2
STYLE_04
 70
     0
  3

 72
    65
 73
     4
 40
0.5905511811023623
 49
0.2952755905511811
 74
     0
 49
-0.1476377952755906
 74
     0
 49
0.0002
 74
     0
 49
-0.1474377952755906
 74
     0
  0
LTYPE
  5
45
330
4
100
AcDbSymbolTableRecord
100
AcDbLinetypeTableRecord
  2
STYLE_05
 70
     0
  3

 72
    65
 73
     6
 40
0.7381889763779528
 49
0.2952755905511811
 74
     0
 49
-0.1476377952755906
 74
     0
 49
0.0002
 74
     0
 49
-0.1474377952755906
 74
     0
 49
0.0002
 74
     0
 49
-0.1474377952755905
 74
     0
  0
LTYPE
  5
46
330
4
100
AcDbSymbolTableRecord
100
AcDbLinetypeTableRecord
  2
STYLE_06
 70
     0
  3

 72
    65
 73
     4
 40
0.4166560000000001
 49
0.25
 74
     0
 49
-0.083312
 74
     0
 49
0.027772
 74
     0
 49
-0.055572
 74
     0
  0
LTYPE
  5
47
330
4
100
AcDbSymbolTableRecord
100
AcDbLinetypeTableRecord
  2
STYLE_07
 70
     0
  3

 72
    65
 73
     6
 40
0.75
 49
0.25
 74
     0
 49
-0.083312
 74
     0
 49
0.2500000000000001
 74
     0
 49
-0.083344
 74
     0
 49
0.027772
 74
     0
 49
-0.055572
 74
     0
  0
LTYPE
  5
48
330
4
100
AcDbSymbolTableRecord
100
AcDbLinetypeTableRecord
  2
STYLE_08
 70
     0
  3

 72
    65
 73
     6
 40
0.5
 49
0.25
 74
     0
 49
-0.083312
 74
     0
 49
0.027772
 74
     0
 49
-0.055572
 74
     0
 49
0.027772
 74
     0
 49
-0.055572
 74
     0
  0
LTYPE
  5
49
330
4
100
AcDbSymbolTableRecord
100
AcDbLinetypeTableRecord
  2
STYLE_09
 70
     0
  3

 72
    65
 73
     4
 40
2.0
 49
1.5
 74
     0
 49
-0.1111139999999999
 74
     0
 49
0.2777720000000001
 74
     0
 49
-0.1111139999999999
 74
     0
  0
LTYPE
  5
4A
330
4
100
AcDbSymbolTableRecord
100
AcDbLinetypeTableRecord
  2
STYLE_10
 70
     0
  3

 72
    65
 73
     6
 40
2.375
 49
1.5
 74
     0
 49
-0.1111139999999999
 74
     0
 49
0.2777720000000001
 74
     0
 49
-0.1111139999999999
 74
     0
 49
0.25
 74
     0
 49
-0.125
 74
     0
  0
ENDTAB
  0
TABLE
  2
LAYER
  5
2
330
0
100
AcDbSymbolTable
 70
    10
  0
LAYER
  5
14
330
2
100
AcDbSymbolTableRecord
100
AcDbLayerTableRecord
  2
0
 70
     0
 62
     7
  6
Continuous
370
    15
390
1D
  0
LAYER
  5
4B
330
2
100
AcDbSymbolTableRecord
100
AcDbLayerTableRecord
  2
Defpoints
 70
     0
 62
     7
  6
Continuous
290
     0
370
    -3
390
1D
  0
LAYER
  5
4C
330
2
100
AcDbSymbolTableRecord
100
AcDbLayerTableRecord
  2
一般
 70
     0
 62
     7
  6
Continuous
370
     5
390
1D
  0
LAYER
  5
4D
330
2
100
AcDbSymbolTableRecord
100
AcDbLayerTableRecord
  2
寸法
 70
     0
 62
     7
  6
Continuous
370
     5
390
1D
  0
LAYER
  5
4E
330
2
100
AcDbSymbolTableRecord
100
AcDbLayerTableRecord
  2
1
 70
     0
 62
     7
  6
Continuous
370
    15
390
1D
  0
LAYER
  5
4F
330
2
100
AcDbSymbolTableRecord
100
AcDbLayerTableRecord
  2
17
 70
     0
 62
     7
  6
Continuous
370
    15
390
1D
  0
LAYER
  5
50
330
2
100
AcDbSymbolTableRecord
100
AcDbLayerTableRecord
  2
33
 70
     0
 62
     7
  6
Continuous
370
    15
390
1D
  0
LAYER
  5
51
330
2
100
AcDbSymbolTableRecord
100
AcDbLayerTableRecord
  2
49
 70
     0
 62
     7
  6
Continuous
370
    15
390
1D
  0
LAYER
  5
52
330
2
100
AcDbSymbolTableRecord
100
AcDbLayerTableRecord
  2
実形
 70
     0
 62
     7
  6
Continuous
370
    18
390
1D
  0
LAYER
  5
53
330
2
100
AcDbSymbolTableRecord
100
AcDbLayerTableRecord
  2
実形-2
 70
     0
 62
     7
  6
Continuous
370
    13
390
1D
  0
ENDTAB
  0
TABLE
  2
STYLE
  5
3
330
0
100
AcDbSymbolTable
 70
     3
  0
STYLE
  5
17
330
3
100
AcDbSymbolTableRecord
100
AcDbTextStyleTableRecord
  2
Standard
 70
     0
 40
0.0
 41
1.0
 50
0.0
 71
     0
 42
0.0
  3
txt
  4
BIGFONT.SHX
  0
STYLE
  5
3F
330
3
100
AcDbSymbolTableRecord
100
AcDbTextStyleTableRecord
  2
Arial
 70
     0
 40
0.0
 41
1.0
 50
0.0
 71
     0
 42
0.0
  3
Arial
  4

1001
ACAD
1000
Arial
1071
        0
  0
STYLE
  5
40
330
3
100
AcDbSymbolTableRecord
100
AcDbTextStyleTableRecord
  2
ＭＳ ゴシック
 70
     0
 40
0.0
 41
1.0
 50
0.0
 71
     0
 42
0.0
  3
ＭＳ ゴシック
  4

1001
ACAD
1000
ＭＳ ゴシック
1071
        0
  0
ENDTAB
  0
TABLE
  2
VIEW
  5
5
330
0
100
AcDbSymbolTable
 70
     0
  0
ENDTAB
  0
TABLE
  2
UCS
  5
6
330
0
100
AcDbSymbolTable
 70
     0
  0
ENDTAB
  0
TABLE
  2
APPID
  5
8
330
0
100
AcDbSymbolTable
 70
     1
  0
APPID
  5
16
330
8
100
AcDbSymbolTableRecord
100
AcDbRegAppTableRecord
  2
ACAD
 70
     0
  0
ENDTAB
  0
TABLE
  2
DIMSTYLE
  5
9
330
0
100
AcDbSymbolTable
 70
     2
100
AcDbDimStyleTable
 71
     0
  0
DIMSTYLE
105
18
330
9
100
AcDbSymbolTableRecord
100
AcDbDimStyleTableRecord
  2
Standard
 70
     0
340
17
  0
DIMSTYLE
105
5D
102
{ACAD_REACTORS
330
1D1
330
1D2
330
1D3
330
1D4
330
1D5
330
1DD
330
1E7
330
1E8
330
1E9
330
1EA
330
1EB
330
1F0
330
1F2
330
1F3
330
1F4
330
1F5
330
1F6
330
1FF
330
200
330
201
330
202
330
203
330
204
330
211
330
212
330
213
330
214
102
}
330
9
100
AcDbSymbolTableRecord
100
AcDbDimStyleTableRecord
  2
Arch
 70
     0
  3
<>
  4
[]
 41
22.4482421875
 42
15.875
 43
10.16
 44
31.75
 46
1.587499999999999
 73
     0
 74
     0
 77
     1
 78
    11
140
24.4326171875
141
0.0
143
0.0393700787401575
146
0.8
147
1.587499999999999
171
     3
172
     1
174
     1
179
     2
271
     1
272
     1
273
     4
276
     2
284
    11
285
    15
286
    15
340
40
341
59
342
54
  0
ENDTAB
  0
TABLE
  2
BLOCK_RECORD
  5
1
330
0
100
AcDbSymbolTable
 70
    29
  0
BLOCK_RECORD
  5
A
330
1
100
AcDbSymbolTableRecord
100
AcDbBlockTableRecord
  2
*MODEL_SPACE
340
20
  0
BLOCK_RECORD
  5
B
330
1
100
AcDbSymbolTableRecord
100
AcDbBlockTableRecord
  2
*PAPER_SPACE
340
21
  0
BLOCK_RECORD
  5
54
330
1
100
AcDbSymbolTableRecord
100
AcDbBlockTableRecord
  2
VW_SLASH
340
0
  0
BLOCK_RECORD
  5
59
330
1
100
AcDbSymbolTableRecord
100
AcDbBlockTableRecord
  2
VW_FILLEDARROW
340
0
  0
BLOCK_RECORD
  5
24
330
1
100
AcDbSymbolTableRecord
100
AcDbBlockTableRecord
  2
*D2
340
0
  0
BLOCK_RECORD
  5
25
330
1
100
AcDbSymbolTableRecord
100
AcDbBlockTableRecord
  2
*D3
340
0
  0
BLOCK_RECORD
  5
26
330
1
100
AcDbSymbolTableRecord
100
AcDbBlockTableRecord
  2
*D4
340
0
  0
BLOCK_RECORD
  5
27
330
1
100
AcDbSymbolTableRecord
100
AcDbBlockTableRecord
  2
*D5
340
0
  0
BLOCK_RECORD
  5
28
330
1
100
AcDbSymbolTableRecord
100
AcDbBlockTableRecord
  2
*D6
340
0
  0
BLOCK_RECORD
  5
29
330
1
100
AcDbSymbolTableRecord
100
AcDbBlockTableRecord
  2
*D7
340
0
  0
BLOCK_RECORD
  5
2A
330
1
100
AcDbSymbolTableRecord
100
AcDbBlockTableRecord
  2
*D8
340
0
  0
BLOCK_RECORD
  5
2B
330
1
100
AcDbSymbolTableRecord
100
AcDbBlockTableRecord
  2
*D9
340
0
  0
BLOCK_RECORD
  5
2C
330
1
100
AcDbSymbolTableRecord
100
AcDbBlockTableRecord
  2
*D10
340
0
  0
BLOCK_RECORD
  5
2D
330
1
100
AcDbSymbolTableRecord
100
AcDbBlockTableRecord
  2
*D11
340
0
  0
BLOCK_RECORD
  5
2E
330
1
100
AcDbSymbolTableRecord
100
AcDbBlockTableRecord
  2
*D12
340
0
  0
BLOCK_RECORD
  5
2F
330
1
100
AcDbSymbolTableRecord
100
AcDbBlockTableRecord
  2
*D13
340
0
  0
BLOCK_RECORD
  5
30
330
1
100
AcDbSymbolTableRecord
100
AcDbBlockTableRecord
  2
*D14
340
0
  0
BLOCK_RECORD
  5
31
330
1
100
AcDbSymbolTableRecord
100
AcDbBlockTableRecord
  2
*D15
340
0
  0
BLOCK_RECORD
  5
32
330
1
100
AcDbSymbolTableRecord
100
AcDbBlockTableRecord
  2
*D16
340
0
  0
BLOCK_RECORD
  5
33
330
1
100
AcDbSymbolTableRecord
100
AcDbBlockTableRecord
  2
*D17
340
0
  0
BLOCK_RECORD
  5
34
330
1
100
AcDbSymbolTableRecord
100
AcDbBlockTableRecord
  2
*D18
340
0
  0
BLOCK_RECORD
  5
35
330
1
100
AcDbSymbolTableRecord
100
AcDbBlockTableRecord
  2
*D19
340
0
  0
BLOCK_RECORD
  5
36
330
1
100
AcDbSymbolTableRecord
100
AcDbBlockTableRecord
  2
*D20
340
0
  0
BLOCK_RECORD
  5
37
330
1
100
AcDbSymbolTableRecord
100
AcDbBlockTableRecord
  2
*D21
340
0
  0
BLOCK_RECORD
  5
38
330
1
100
AcDbSymbolTableRecord
100
AcDbBlockTableRecord
  2
*D22
340
0
  0
BLOCK_RECORD
  5
39
330
1
100
AcDbSymbolTableRecord
100
AcDbBlockTableRecord
  2
*D23
340
0
  0
BLOCK_RECORD
  5
3A
330
1
100
AcDbSymbolTableRecord
100
AcDbBlockTableRecord
  2
*D24
340
0
  0
BLOCK_RECORD
  5
3B
330
1
100
AcDbSymbolTableRecord
100
AcDbBlockTableRecord
  2
*D25
340
0
  0
BLOCK_RECORD
  5
3C
330
1
100
AcDbSymbolTableRecord
100
AcDbBlockTableRecord
  2
*D26
340
0
  0
BLOCK_RECORD
  5
3D
330
1
100
AcDbSymbolTableRecord
100
AcDbBlockTableRecord
  2
*D27
340
0
  0
BLOCK_RECORD
  5
3E
330
1
100
AcDbSymbolTableRecord
100
AcDbBlockTableRecord
  2
*D28
340
0
  0
ENDTAB
  0
ENDSEC
  0
SECTION
  2
BLOCKS
  0
BLOCK
  5
D
330
A
100
AcDbEntity
  8
0
100
AcDbBlockBegin
  2
*MODEL_SPACE
 70
     0
 10
0.0
 20
0.0
 30
0.0
  3
*MODEL_SPACE
  1

  0
ENDBLK
  5
E
330
A
100
AcDbEntity
  8
0
100
AcDbBlockEnd
  0
BLOCK
  5
F
330
B
100
AcDbEntity
 67
     1
  8
0
100
AcDbBlockBegin
  2
*PAPER_SPACE
 70
     0
 10
0.0
 20
0.0
 30
0.0
  3
*PAPER_SPACE
  1

  0
ENDBLK
  5
10
330
B
100
AcDbEntity
 67
     1
  8
0
100
AcDbBlockEnd
  0
BLOCK
  5
55
330
54
100
AcDbEntity
  8
0
  6
ByBlock
 62
     0
370
    -2
100
AcDbBlockBegin
  2
VW_SLASH
 70
     0
 10
0.0
 20
0.0
 30
0.0
  3
VW_SLASH
  1

  0
LINE
  5
56
330
54
100
AcDbEntity
  8
0
  6
ByBlock
 62
     0
370
    -2
100
AcDbLine
 10
0.0
 20
0.0
 30
0.0
 11
-1.0
 21
0.0
 31
0.0
  0
LINE
  5
57
330
54
100
AcDbEntity
  8
0
  6
ByBlock
 62
     0
370
    20
100
AcDbLine
 10
0.4987813153181721
 20
0.4987813153181721
 30
0.0
 11
-0.4987813153181721
 21
-0.4987813153181721
 31
0.0
  0
ENDBLK
  5
58
330
54
100
AcDbEntity
  8
0
100
AcDbBlockEnd
  0
BLOCK
  5
5A
330
59
100
AcDbEntity
  8
0
  6
ByBlock
 62
     0
370
    -2
100
AcDbBlockBegin
  2
VW_FILLEDARROW
 70
     0
 10
0.0
 20
0.0
 30
0.0
  3
VW_FILLEDARROW
  1

  0
SOLID
  5
5B
330
59
100
AcDbEntity
  8
0
 62
     0
370
    -2
100
AcDbTrace
 10
0.0
 20
0.0
 30
0.0
 11
1.4107666015625
 21
0.3780137715974713
 31
0.0
 12
1.4107666015625
 22
-0.3780137715974713
 32
0.0
 13
1.4107666015625
 23
-0.3780137715974713
 33
0.0
  0
ENDBLK
  5
5C
330
59
100
AcDbEntity
  8
0
100
AcDbBlockEnd
  0
BLOCK
  5
5E
330
24
100
AcDbEntity
  8
寸法
100
AcDbBlockBegin
  2
*D2
 70
     1
 10
0.0
 20
0.0
 30
0.0
  3
*D2
  1

  0
LINE
  5
5F
330
24
100
AcDbEntity
  8
寸法
  6
Continuous
 62
     0
370
    -2
100
AcDbLine
 10
60.0
 20
1140.875
 30
0.0
 11
60.0
 21
1549.13787472012
 31
0.0
  0
LINE
  5
60
330
24
100
AcDbEntity
  8
寸法
  6
Continuous
 62
     0
370
    -2
100
AcDbLine
 10
1080.0
 20
1140.875
 30
0.0
 11
1080.0
 21
1549.13787472012
 31
0.0
  0
LINE
  5
61
330
24
100
AcDbEntity
  8
寸法
  6
Continuous
 62
     0
370
    -2
100
AcDbLine
 10
44.125
 20
1517.38787472012
 30
0.0
 11
60.0
 21
1517.38787472012
 31
0.0
  0
LINE
  5
62
330
24
100
AcDbEntity
  8
寸法
  6
Continuous
 62
     0
370
    -2
100
AcDbLine
 10
1080.0
 20
1517.38787472012
 30
0.0
 11
1095.875
 21
1517.38787472012
 31
0.0
  0
LINE
  5
63
330
24
100
AcDbEntity
  8
寸法
  6
Continuous
 62
     0
370
    -2
100
AcDbLine
 10
60.0
 20
1517.38787472012
 30
0.0
 11
1080.0
 21
1517.38787472012
 31
0.0
  0
LINE
  5
64
330
24
100
AcDbEntity
  8
寸法
  6
Continuous
 62
     0
370
    20
100
AcDbLine
 10
71.22532015133652
 20
1528.613194871456
 30
0.0
 11
48.77467984866347
 21
1506.162554568784
 31
0.0
  0
LINE
  5
65
330
24
100
AcDbEntity
  8
寸法
  6
Continuous
 62
     0
370
    20
100
AcDbLine
 10
1068.774679848663
 20
1506.162554568784
 30
0.0
 11
1091.225320151336
 21
1528.613194871456
 31
0.0
  0
WIPEOUT
  5
66
330
24
100
AcDbEntity
  8
寸法
  6
Continuous
 62
     0
 92
      276
310
1401000003000000800000000A0000000000000000D2804071D7072F0DF59740000000000000000000000000000000000000000000000000000000000000F03F000000000000F03F000000000000000000000000000000000000000000000000000000000000F03F000000000000000041634462576970656F757420285769
310
70654F7574290000008400000006000000050000000000000000D2804071D7072F0DF5974000000000000000000000000000CE824071D7072F0DF5974000000000000000000000000000CE824071D7072F0D74984000000000000000000000000000D2804071D7072F0D74984000000000000000000000000000D2804071D7
310
072F0DF5974000000000000000000800000015000000
370
    -2
100
AcDbWipeout
 90
        0
 10
538.25
 20
1894.402554942768
 30
0.0
 11
63.5
 21
0.0
 31
0.0
 12
0.0
 22
63.5
 32
0.0
 13
1.0
 23
1.0
340
0
 70
     7
280
     1
281
    50
282
    50
283
     0
360
0
 71
     2
 91
        5
 14
-0.5
 24
6.187239058624376
 14
0.5
 24
6.187239058624376
 14
0.5
 24
5.687239058624376
 14
-0.5
 24
5.687239058624376
 14
-0.5
 24
6.187239058624376
  0
MTEXT
  5
67
330
24
100
AcDbEntity
  8
寸法
 62
     0
100
AcDbMText
 10
538.25
 20
1562.14049190762
 30
0.0
 40
24.4326171875
 41
0.0
 71
     1
 72
     1
  1
1020
  7
ＭＳ ゴシック
 73
     1
 44
0.7828267384257845
1001
ACAD
1000
MTEXTBEGIN
1070
    73
1070
     1
1070
    44
1040
0.7828267384257845
1070
    74
1070
     0
1000
MTEXTEND
  0
POINT
  5
68
330
24
100
AcDbEntity
  8
Defpoints
 62
     0
370
     0
100
AcDbPoint
 10
1080.0
 20
1125.0
 30
0.0
  0
POINT
  5
69
330
24
100
AcDbEntity
  8
Defpoints
 62
     0
370
     0
100
AcDbPoint
 10
60.0
 20
1125.0
 30
0.0
  0
POINT
  5
6A
330
24
100
AcDbEntity
  8
Defpoints
 62
     0
370
     0
100
AcDbPoint
 10
60.0
 20
1517.38787472012
 30
0.0
  0
ENDBLK
  5
6B
330
24
100
AcDbEntity
  8
寸法
100
AcDbBlockEnd
  0
BLOCK
  5
6C
330
25
100
AcDbEntity
  8
寸法
100
AcDbBlockBegin
  2
*D3
 70
     1
 10
0.0
 20
0.0
 30
0.0
  3
*D3
  1

  0
LINE
  5
6D
330
25
100
AcDbEntity
  8
寸法
  6
Continuous
 62
     0
370
    -2
100
AcDbLine
 10
75.0
 20
1085.875
 30
0.0
 11
75.0
 21
1496.75
 31
0.0
  0
LINE
  5
6E
330
25
100
AcDbEntity
  8
寸法
  6
Continuous
 62
     0
370
    -2
100
AcDbLine
 10
1065.0
 20
1085.875
 30
0.0
 11
1065.0
 21
1496.75
 31
0.0
  0
LINE
  5
6F
330
25
100
AcDbEntity
  8
寸法
  6
Continuous
 62
     0
370
    -2
100
AcDbLine
 10
59.125
 20
1465.0
 30
0.0
 11
75.0
 21
1465.0
 31
0.0
  0
LINE
  5
70
330
25
100
AcDbEntity
  8
寸法
  6
Continuous
 62
     0
370
    -2
100
AcDbLine
 10
1065.0
 20
1465.0
 30
0.0
 11
1080.875
 21
1465.0
 31
0.0
  0
LINE
  5
71
330
25
100
AcDbEntity
  8
寸法
  6
Continuous
 62
     0
370
    -2
100
AcDbLine
 10
75.0
 20
1465.0
 30
0.0
 11
1065.0
 21
1465.0
 31
0.0
  0
LINE
  5
72
330
25
100
AcDbEntity
  8
寸法
  6
Continuous
 62
     0
370
    20
100
AcDbLine
 10
86.22532015133641
 20
1476.225320151336
 30
0.0
 11
63.77467984866347
 21
1453.774679848663
 31
0.0
  0
LINE
  5
73
330
25
100
AcDbEntity
  8
寸法
  6
Continuous
 62
     0
370
    20
100
AcDbLine
 10
1053.774679848664
 20
1453.774679848663
 30
0.0
 11
1076.225320151336
 21
1476.225320151336
 31
0.0
  0
WIPEOUT
  5
74
330
25
100
AcDbEntity
  8
寸法
  6
Continuous
 62
     0
 92
      276
310
1401000003000000800000000A000000E4381EFF7F1181400000000080239740000000000000000000000000000000000000000000000000000000000000F03F000000000000F03F000000000000000000000000000000000000000000000000000000000000F03F000000000000000041634462576970656F757420285769
310
70654F757429000000840000000600000005000000E4381EFF7F118140000000008023974000000000000000001CC7E100808E8240000000008023974000000000000000001CC7E100808E82400000000080A297400000000000000000E4381EFF7F1181400000000080A297400000000000000000E4381EFF7F1181400000
310
00008023974000000000000000000800000015000000
370
    -2
100
AcDbWipeout
 90
        0
 10
546.1874983178245
 20
1842.014680222648
 30
0.0
 11
47.62500336435107
 21
0.0
 31
0.0
 12
0.0
 22
47.62500336435107
 32
0.0
 13
1.0
 23
1.0
340
0
 70
     7
280
     1
281
    50
282
    50
283
     0
360
0
 71
     2
 91
        5
 14
-0.5
 24
8.082984875817842
 14
0.5
 24
8.082984875817842
 14
0.5
 24
7.416318256246201
 14
-0.5
 24
7.416318256246201
 14
-0.5
 24
8.082984875817842
  0
MTEXT
  5
75
330
25
100
AcDbEntity
  8
寸法
 62
     0
100
AcDbMText
 10
546.1874983178245
 20
1509.7526171875
 30
0.0
 40
24.4326171875
 41
0.0
 71
     1
 72
     1
  1
990
  7
ＭＳ ゴシック
 73
     1
 44
0.7828267384257845
1001
ACAD
1000
MTEXTBEGIN
1070
    73
1070
     1
1070
    44
1040
0.7828267384257845
1070
    74
1070
     0
1000
MTEXTEND
  0
POINT
  5
76
330
25
100
AcDbEntity
  8
Defpoints
 62
     0
370
     0
100
AcDbPoint
 10
1065.0
 20
1070.0
 30
0.0
  0
POINT
  5
77
330
25
100
AcDbEntity
  8
Defpoints
 62
     0
370
     0
100
AcDbPoint
 10
75.0
 20
1070.0
 30
0.0
  0
POINT
  5
78
330
25
100
AcDbEntity
  8
Defpoints
 62
     0
370
     0
100
AcDbPoint
 10
75.0
 20
1465.0
 30
0.0
  0
ENDBLK
  5
79
330
25
100
AcDbEntity
  8
寸法
100
AcDbBlockEnd
  0
BLOCK
  5
7A
330
26
100
AcDbEntity
  8
寸法
100
AcDbBlockBegin
  2
*D4
 70
     1
 10
0.0
 20
0.0
 30
0.0
  3
*D4
  1

  0
LINE
  5
7B
330
26
100
AcDbEntity
  8
寸法
  6
Continuous
 62
     0
370
    -2
100
AcDbLine
 10
154.125
 20
1190.0
 30
0.0
 11
-216.75
 21
1190.0
 31
0.0
  0
LINE
  5
7C
330
26
100
AcDbEntity
  8
寸法
  6
Continuous
 62
     0
370
    -2
100
AcDbLine
 10
154.125
 20
718.0
 30
0.0
 11
-216.75
 21
718.0
 31
0.0
  0
LINE
  5
7D
330
26
100
AcDbEntity
  8
寸法
  6
Continuous
 62
     0
370
    -2
100
AcDbLine
 10
-185.0
 20
1205.875
 30
0.0
 11
-185.0
 21
1190.0
 31
0.0
  0
LINE
  5
7E
330
26
100
AcDbEntity
  8
寸法
  6
Continuous
 62
     0
370
    -2
100
AcDbLine
 10
-185.0
 20
718.0
 30
0.0
 11
-185.0
 21
702.125
 31
0.0
  0
LINE
  5
7F
330
26
100
AcDbEntity
  8
寸法
  6
Continuous
 62
     0
370
    -2
100
AcDbLine
 10
-185.0
 20
1190.0
 30
0.0
 11
-185.0
 21
718.0
 31
0.0
  0
LINE
  5
80
330
26
100
AcDbEntity
  8
寸法
  6
Continuous
 62
     0
370
    20
100
AcDbLine
 10
-173.7746798486635
 20
1178.774679848663
 30
0.0
 11
-196.2253201513365
 21
1201.225320151336
 31
0.0
  0
LINE
  5
81
330
26
100
AcDbEntity
  8
寸法
  6
Continuous
 62
     0
370
    20
100
AcDbLine
 10
-196.2253201513365
 20
729.2253201513362
 30
0.0
 11
-173.7746798486635
 21
706.7746798486636
 31
0.0
  0
WIPEOUT
  5
82
330
26
100
AcDbEntity
  8
寸法
  6
Continuous
 62
     0
 92
      276
310
1401000003000000800000000A0000000000000000146DC0E2381EFF7F118D40000000000000000000000000000000000000000000000000000000000000F03F000000000000F03F000000000000000000000000000000000000000000000000000000000000F03F000000000000000041634462576970656F757420285769
310
70654F7574290000008400000006000000050000000000000000146DC0E2381EFF7F118D40000000000000000000000000001C69C0E2381EFF7F118D40000000000000000000000000001C69C01AC7E100808E8E4000000000000000000000000000146DC01AC7E100808E8E4000000000000000000000000000146DC0E238
310
1EFF7F118D4000000000000000000800000015000000
370
    -2
100
AcDbWipeout
 90
        0
 10
-232.625
 20
1291.327178540472
 30
0.0
 11
47.62500336435107
 21
0.0
 31
0.0
 12
0.0
 22
47.62500336435107
 32
0.0
 13
1.0
 23
1.0
340
0
 70
     7
280
     1
281
    50
282
    50
283
     0
360
0
 71
     2
 91
        5
 14
0.1666666195716419
 24
8.082984875817837
 14
0.1666666195716419
 24
7.082984875817841
 14
-0.5
 24
7.082984875817841
 14
-0.5
 24
8.082984875817837
 14
0.1666666195716419
 24
8.082984875817837
  0
MTEXT
  5
83
330
26
100
AcDbEntity
  8
寸法
 62
     0
100
AcDbMText
 10
-229.7526171874999
 20
930.1874983178244
 30
0.0
 40
24.4326171875
 41
0.0
 71
     1
 72
     1
  1
472
  7
ＭＳ ゴシック
 11
0.0
 21
1.0
 31
0.0
 73
     1
 44
0.7828267384257845
1001
ACAD
1000
MTEXTBEGIN
1070
    73
1070
     1
1070
    44
1040
0.7828267384257845
1070
    74
1070
     0
1000
MTEXTEND
  0
POINT
  5
84
330
26
100
AcDbEntity
  8
Defpoints
 62
     0
370
     0
100
AcDbPoint
 10
170.0
 20
718.0
 30
0.0
  0
POINT
  5
85
330
26
100
AcDbEntity
  8
Defpoints
 62
     0
370
     0
100
AcDbPoint
 10
170.0
 20
1190.0
 30
0.0
  0
POINT
  5
86
330
26
100
AcDbEntity
  8
Defpoints
 62
     0
370
     0
100
AcDbPoint
 10
-185.0
 20
1190.0
 30
0.0
  0
ENDBLK
  5
87
330
26
100
AcDbEntity
  8
寸法
100
AcDbBlockEnd
  0
BLOCK
  5
88
330
27
100
AcDbEntity
  8
寸法
100
AcDbBlockBegin
  2
*D5
 70
     1
 10
0.0
 20
0.0
 30
0.0
  3
*D5
  1

  0
LINE
  5
89
330
27
100
AcDbEntity
  8
寸法
  6
Continuous
 62
     0
370
    -2
100
AcDbLine
 10
223.9820987306957
 20
1175.0
 30
0.0
 11
-161.8929012693042
 21
1175.0
 31
0.0
  0
LINE
  5
8A
330
27
100
AcDbEntity
  8
寸法
  6
Continuous
 62
     0
370
    -2
100
AcDbLine
 10
223.9820987306957
 20
733.0
 30
0.0
 11
-161.8929012693042
 21
733.0
 31
0.0
  0
LINE
  5
8B
330
27
100
AcDbEntity
  8
寸法
  6
Continuous
 62
     0
370
    -2
100
AcDbLine
 10
-130.1429012693043
 20
1190.875
 30
0.0
 11
-130.1429012693043
 21
1175.0
 31
0.0
  0
LINE
  5
8C
330
27
100
AcDbEntity
  8
寸法
  6
Continuous
 62
     0
370
    -2
100
AcDbLine
 10
-130.1429012693043
 20
733.0
 30
0.0
 11
-130.1429012693043
 21
717.125
 31
0.0
  0
LINE
  5
8D
330
27
100
AcDbEntity
  8
寸法
  6
Continuous
 62
     0
370
    -2
100
AcDbLine
 10
-130.1429012693043
 20
1175.0
 30
0.0
 11
-130.1429012693043
 21
733.0
 31
0.0
  0
LINE
  5
8E
330
27
100
AcDbEntity
  8
寸法
  6
Continuous
 62
     0
370
    20
100
AcDbLine
 10
-118.9175811179677
 20
1163.774679848663
 30
0.0
 11
-141.3682214206408
 21
1186.225320151336
 31
0.0
  0
LINE
  5
8F
330
27
100
AcDbEntity
  8
寸法
  6
Continuous
 62
     0
370
    20
100
AcDbLine
 10
-141.3682214206408
 20
744.2253201513364
 30
0.0
 11
-118.9175811179677
 21
721.7746798486635
 31
0.0
  0
WIPEOUT
  5
90
330
27
100
AcDbEntity
  8
寸法
  6
Continuous
 62
     0
 92
      276
310
1401000003000000800000000A00000001C7AEA5923866C0E2381EFF7F118D40000000000000000000000000000000000000000000000000000000000000F03F000000000000F03F000000000000000000000000000000000000000000000000000000000000F03F000000000000000041634462576970656F757420285769
310
70654F75742900000084000000060000000500000001C7AEA5923866C0E2381EFF7F118D40000000000000000001C7AEA5924062C0E2381EFF7F118D40000000000000000001C7AEA5924062C01AC7E100808E8E40000000000000000001C7AEA5923866C01AC7E100808E8E40000000000000000001C7AEA5923866C0E238
310
1EFF7F118D4000000000000000000800000015000000
370
    -2
100
AcDbWipeout
 90
        0
 10
-177.7679012693043
 20
1291.327178540472
 30
0.0
 11
47.62500336435107
 21
0.0
 31
0.0
 12
0.0
 22
47.62500336435107
 32
0.0
 13
1.0
 23
1.0
340
0
 70
     7
280
     1
281
    50
282
    50
283
     0
360
0
 71
     2
 91
        5
 14
0.1666666195716419
 24
8.082984875817837
 14
0.1666666195716419
 24
7.082984875817841
 14
-0.5
 24
7.082984875817841
 14
-0.5
 24
8.082984875817837
 14
0.1666666195716419
 24
8.082984875817837
  0
MTEXT
  5
91
330
27
100
AcDbEntity
  8
寸法
 62
     0
100
AcDbMText
 10
-174.8955184568042
 20
930.1874983178244
 30
0.0
 40
24.4326171875
 41
0.0
 71
     1
 72
     1
  1
442
  7
ＭＳ ゴシック
 11
0.0
 21
1.0
 31
0.0
 73
     1
 44
0.7828267384257845
1001
ACAD
1000
MTEXTBEGIN
1070
    73
1070
     1
1070
    44
1040
0.7828267384257845
1070
    74
1070
     0
1000
MTEXTEND
  0
POINT
  5
92
330
27
100
AcDbEntity
  8
Defpoints
 62
     0
370
     0
100
AcDbPoint
 10
239.8570987306957
 20
733.0
 30
0.0
  0
POINT
  5
93
330
27
100
AcDbEntity
  8
Defpoints
 62
     0
370
     0
100
AcDbPoint
 10
239.8570987306957
 20
1175.0
 30
0.0
  0
POINT
  5
94
330
27
100
AcDbEntity
  8
Defpoints
 62
     0
370
     0
100
AcDbPoint
 10
-130.1429012693043
 20
1175.0
 30
0.0
  0
ENDBLK
  5
95
330
27
100
AcDbEntity
  8
寸法
100
AcDbBlockEnd
  0
BLOCK
  5
96
330
28
100
AcDbEntity
  8
寸法
100
AcDbBlockBegin
  2
*D6
 70
     1
 10
0.0
 20
0.0
 30
0.0
  3
*D6
  1

  0
LINE
  5
97
330
28
100
AcDbEntity
  8
寸法
  6
Continuous
 62
     0
370
    -2
100
AcDbLine
 10
60.0
 20
774.1249999999999
 30
0.0
 11
60.0
 21
456.2499999999543
 31
0.0
  0
LINE
  5
98
330
28
100
AcDbEntity
  8
寸法
  6
Continuous
 62
     0
370
    -2
100
AcDbLine
 10
618.0
 20
690.209945435796
 30
0.0
 11
618.0
 21
456.2499999999543
 31
0.0
  0
LINE
  5
99
330
28
100
AcDbEntity
  8
寸法
  6
Continuous
 62
     0
370
    -2
100
AcDbLine
 10
44.125
 20
487.9999999999543
 30
0.0
 11
60.0
 21
487.9999999999543
 31
0.0
  0
LINE
  5
9A
330
28
100
AcDbEntity
  8
寸法
  6
Continuous
 62
     0
370
    -2
100
AcDbLine
 10
618.0
 20
487.9999999999543
 30
0.0
 11
633.875
 21
487.9999999999543
 31
0.0
  0
LINE
  5
9B
330
28
100
AcDbEntity
  8
寸法
  6
Continuous
 62
     0
370
    -2
100
AcDbLine
 10
60.0
 20
487.9999999999543
 30
0.0
 11
618.0
 21
487.9999999999543
 31
0.0
  0
LINE
  5
9C
330
28
100
AcDbEntity
  8
寸法
  6
Continuous
 62
     0
370
    20
100
AcDbLine
 10
71.22532015133652
 20
499.2253201512908
 30
0.0
 11
48.77467984866347
 21
476.774679848618
 31
0.0
  0
LINE
  5
9D
330
28
100
AcDbEntity
  8
寸法
  6
Continuous
 62
     0
370
    20
100
AcDbLine
 10
606.7746798486633
 20
476.774679848618
 30
0.0
 11
629.2253201513365
 21
499.2253201512908
 31
0.0
  0
WIPEOUT
  5
9E
330
28
100
AcDbEntity
  8
寸法
  6
Continuous
 62
     0
 92
      276
310
1401000003000000800000000A000000C8713CFEFFB27340D9FCFFFFFF7D7F40000000000000000000000000000000000000000000000000000000000000F03F000000000000F03F000000000000000000000000000000000000000000000000000000000000F03F000000000000000041634462576970656F757420285769
310
70654F757429000000840000000600000005000000C8713CFEFFB27340D9FCFFFFFF7D7F4000000000000000003A8EC30100AD7640D9FCFFFFFF7D7F4000000000000000003A8EC30100AD76406DFEFFFFFFBC80400000000000000000C8713CFEFFB273406DFEFFFFFFBC80400000000000000000C8713CFEFFB27340D9FC
310
FFFFFF7D7F4000000000000000000800000015000000
370
    -2
100
AcDbWipeout
 90
        0
 10
315.1874983178245
 20
865.0146802226021
 30
0.0
 11
47.62500336435107
 21
0.0
 31
0.0
 12
0.0
 22
47.62500336435107
 32
0.0
 13
1.0
 23
1.0
340
0
 70
     7
280
     1
281
    50
282
    50
283
     0
360
0
 71
     2
 91
        5
 14
-0.5
 24
8.082984875817842
 14
0.5
 24
8.082984875817842
 14
0.5
 24
7.416318256246199
 14
-0.5
 24
7.416318256246199
 14
-0.5
 24
8.082984875817842
  0
MTEXT
  5
9F
330
28
100
AcDbEntity
  8
寸法
 62
     0
100
AcDbMText
 10
315.1874983178245
 20
532.7526171874545
 30
0.0
 40
24.4326171875
 41
0.0
 71
     1
 72
     1
  1
558
  7
ＭＳ ゴシック
 73
     1
 44
0.7828267384257845
1001
ACAD
1000
MTEXTBEGIN
1070
    73
1070
     1
1070
    44
1040
0.7828267384257845
1070
    74
1070
     0
1000
MTEXTEND
  0
POINT
  5
A0
330
28
100
AcDbEntity
  8
Defpoints
 62
     0
370
     0
100
AcDbPoint
 10
618.0
 20
706.084945435796
 30
0.0
  0
POINT
  5
A1
330
28
100
AcDbEntity
  8
Defpoints
 62
     0
370
     0
100
AcDbPoint
 10
60.0
 20
790.0
 30
0.0
  0
POINT
  5
A2
330
28
100
AcDbEntity
  8
Defpoints
 62
     0
370
     0
100
AcDbPoint
 10
60.0
 20
487.9999999999543
 30
0.0
  0
ENDBLK
  5
A3
330
28
100
AcDbEntity
  8
寸法
100
AcDbBlockEnd
  0
BLOCK
  5
A4
330
29
100
AcDbEntity
  8
寸法
100
AcDbBlockBegin
  2
*D7
 70
     1
 10
0.0
 20
0.0
 30
0.0
  3
*D7
  1

  0
LINE
  5
A5
330
29
100
AcDbEntity
  8
寸法
  6
Continuous
 62
     0
370
    -2
100
AcDbLine
 10
1500.0
 20
704.3589924303537
 30
0.0
 11
1500.0
 21
560.5
 31
0.0
  0
LINE
  5
A6
330
29
100
AcDbEntity
  8
寸法
  6
Continuous
 62
     0
370
    -2
100
AcDbLine
 10
1515.0
 20
704.3589924303537
 30
0.0
 11
1515.0
 21
560.5
 31
0.0
  0
LINE
  5
A7
330
29
100
AcDbEntity
  8
寸法
  6
Continuous
 62
     0
370
    -2
100
AcDbLine
 10
1484.125
 20
592.25
 30
0.0
 11
1500.0
 21
592.25
 31
0.0
  0
LINE
  5
A8
330
29
100
AcDbEntity
  8
寸法
  6
Continuous
 62
     0
370
    -2
100
AcDbLine
 10
1515.0
 20
592.25
 30
0.0
 11
1530.875
 21
592.25
 31
0.0
  0
LINE
  5
A9
330
29
100
AcDbEntity
  8
寸法
  6
Continuous
 62
     0
370
    -2
100
AcDbLine
 10
1500.0
 20
592.25
 30
0.0
 11
1442.25
 21
592.25
 31
0.0
  0
LINE
  5
AA
330
29
100
AcDbEntity
  8
寸法
  6
Continuous
 62
     0
370
    -2
100
AcDbLine
 10
1500.0
 20
592.25
 30
0.0
 11
1515.0
 21
592.25
 31
0.0
  0
LINE
  5
AB
330
29
100
AcDbEntity
  8
寸法
  6
Continuous
 62
     0
370
    20
100
AcDbLine
 10
1511.225320151336
 20
603.4753201513365
 30
0.0
 11
1488.774679848664
 21
581.0246798486636
 31
0.0
  0
LINE
  5
AC
330
29
100
AcDbEntity
  8
寸法
  6
Continuous
 62
     0
370
    20
100
AcDbLine
 10
1503.774679848663
 20
581.0246798486636
 30
0.0
 11
1526.225320151336
 21
603.4753201513365
 31
0.0
  0
WIPEOUT
  5
AD
330
29
100
AcDbEntity
  8
寸法
  6
Continuous
 62
     0
 92
      276
310
1401000003000000800000000A00000000000000008996400200000000018340000000000000000000000000000000000000000000000000000000000000F03F000000000000F03F000000000000000000000000000000000000000000000000000000000000F03F000000000000000041634462576970656F757420285769
310
70654F75742900000084000000060000000500000000000000008996400200000000018340000000000000000000000000000897400200000000018340000000000000000000000000000897400200000000FF8340000000000000000000000000008996400200000000FF8340000000000000000000000000008996400200
310
00000001834000000000000000000800000015000000
370
    -2
100
AcDbWipeout
 90
        0
 10
1442.25
 20
969.264680222648
 30
0.0
 11
31.75
 21
0.0
 31
0.0
 12
0.0
 22
31.75
 32
0.0
 13
1.0
 23
1.0
340
0
 70
     7
280
     1
281
    50
282
    50
283
     0
360
0
 71
     2
 91
        5
 14
-0.5
 24
11.87447811724875
 14
0.5
 24
11.87447811724875
 14
0.5
 24
10.87447811724875
 14
-0.5
 24
10.87447811724875
 14
-0.5
 24
11.87447811724875
  0
MTEXT
  5
AE
330
29
100
AcDbEntity
  8
寸法
 62
     0
100
AcDbMText
 10
1442.25
 20
637.0026171875001
 30
0.0
 40
24.4326171875
 41
0.0
 71
     1
 72
     1
  1
15
  7
ＭＳ ゴシック
 73
     1
 44
0.7828267384257845
1001
ACAD
1000
MTEXTBEGIN
1070
    73
1070
     1
1070
    44
1040
0.7828267384257845
1070
    74
1070
     0
1000
MTEXTEND
  0
POINT
  5
AF
330
29
100
AcDbEntity
  8
Defpoints
 62
     0
370
     0
100
AcDbPoint
 10
1515.0
 20
720.2339924303537
 30
0.0
  0
POINT
  5
B0
330
29
100
AcDbEntity
  8
Defpoints
 62
     0
370
     0
100
AcDbPoint
 10
1500.0
 20
720.2339924303537
 30
0.0
  0
POINT
  5
B1
330
29
100
AcDbEntity
  8
Defpoints
 62
     0
370
     0
100
AcDbPoint
 10
1500.0
 20
592.25
 30
0.0
  0
ENDBLK
  5
B2
330
29
100
AcDbEntity
  8
寸法
100
AcDbBlockEnd
  0
BLOCK
  5
B3
330
2A
100
AcDbEntity
  8
寸法
100
AcDbBlockBegin
  2
*D8
 70
     1
 10
0.0
 20
0.0
 30
0.0
  3
*D8
  1

  0
LINE
  5
B4
330
2A
100
AcDbEntity
  8
寸法
  6
Continuous
 62
     0
370
    -2
100
AcDbLine
 10
1500.0
 20
1129.875
 30
0.0
 11
1500.0
 21
1299.007417636164
 31
0.0
  0
LINE
  5
B5
330
2A
100
AcDbEntity
  8
寸法
  6
Continuous
 62
     0
370
    -2
100
AcDbLine
 10
1705.0
 20
1129.875
 30
0.0
 11
1705.0
 21
1299.007417636164
 31
0.0
  0
LINE
  5
B6
330
2A
100
AcDbEntity
  8
寸法
  6
Continuous
 62
     0
370
    -2
100
AcDbLine
 10
1484.125
 20
1267.257417636164
 30
0.0
 11
1500.0
 21
1267.257417636164
 31
0.0
  0
LINE
  5
B7
330
2A
100
AcDbEntity
  8
寸法
  6
Continuous
 62
     0
370
    -2
100
AcDbLine
 10
1705.0
 20
1267.257417636164
 30
0.0
 11
1720.875
 21
1267.257417636164
 31
0.0
  0
LINE
  5
B8
330
2A
100
AcDbEntity
  8
寸法
  6
Continuous
 62
     0
370
    -2
100
AcDbLine
 10
1500.0
 20
1267.257417636164
 30
0.0
 11
1705.0
 21
1267.257417636164
 31
0.0
  0
LINE
  5
B9
330
2A
100
AcDbEntity
  8
寸法
  6
Continuous
 62
     0
370
    20
100
AcDbLine
 10
1511.225320151336
 20
1278.4827377875
 30
0.0
 11
1488.774679848664
 21
1256.032097484828
 31
0.0
  0
LINE
  5
BA
330
2A
100
AcDbEntity
  8
寸法
  6
Continuous
 62
     0
370
    20
100
AcDbLine
 10
1693.774679848663
 20
1256.032097484828
 30
0.0
 11
1716.225320151336
 21
1278.4827377875
 31
0.0
  0
WIPEOUT
  5
BB
330
2A
100
AcDbEntity
  8
寸法
  6
Continuous
 62
     0
 92
      276
310
1401000003000000800000000A00000034745E9E01BC9840F4227D98870C9440000000000000000000000000000000000000000000000000000000000000F03F000000000000F03F000000000000000000000000000000000000000000000000000000000000F03F000000000000000041634462576970656F757420285769
310
70654F75742900000084000000060000000500000034745E9E01BC9840F4227D98870C94400000000000000000503B409F817A9940F4227D98870C94400000000000000000503B409F817A9940F4227D98878B9440000000000000000034745E9E01BC9840F4227D98878B9440000000000000000034745E9E01BC9840F422
310
7D98870C944000000000000000000800000015000000
370
    -2
100
AcDbWipeout
 90
        0
 10
1583.001580692141
 20
1644.272097858812
 30
0.0
 11
47.62500336435102
 21
0.0
 31
0.0
 12
0.0
 22
47.62500336435102
 32
0.0
 13
1.0
 23
1.0
340
0
 70
     7
280
     1
281
    50
282
    50
283
     0
360
0
 71
     2
 91
        5
 14
-0.5
 24
8.082984875817848
 14
0.4999999999999988
 24
8.082984875817848
 14
0.4999999999999988
 24
7.416318256246206
 14
-0.5
 24
7.416318256246206
 14
-0.5
 24
8.082984875817848
  0
MTEXT
  5
BC
330
2A
100
AcDbEntity
  8
寸法
 62
     0
100
AcDbMText
 10
1583.001580692141
 20
1312.010034823664
 30
0.0
 40
24.4326171875
 41
0.0
 71
     1
 72
     1
  1
205
  7
ＭＳ ゴシック
 73
     1
 44
0.7828267384257845
1001
ACAD
1000
MTEXTBEGIN
1070
    73
1070
     1
1070
    44
1040
0.7828267384257845
1070
    74
1070
     0
1000
MTEXTEND
  0
POINT
  5
BD
330
2A
100
AcDbEntity
  8
Defpoints
 62
     0
370
     0
100
AcDbPoint
 10
1705.0
 20
1114.0
 30
0.0
  0
POINT
  5
BE
330
2A
100
AcDbEntity
  8
Defpoints
 62
     0
370
     0
100
AcDbPoint
 10
1500.0
 20
1114.0
 30
0.0
  0
POINT
  5
BF
330
2A
100
AcDbEntity
  8
Defpoints
 62
     0
370
     0
100
AcDbPoint
 10
1500.0
 20
1267.257417636164
 30
0.0
  0
ENDBLK
  5
C0
330
2A
100
AcDbEntity
  8
寸法
100
AcDbBlockEnd
  0
BLOCK
  5
C1
330
2B
100
AcDbEntity
  8
寸法
100
AcDbBlockBegin
  2
*D9
 70
     1
 10
0.0
 20
0.0
 30
0.0
  3
*D9
  1

  0
LINE
  5
C2
330
2B
100
AcDbEntity
  8
寸法
  6
Continuous
 62
     0
370
    -2
100
AcDbLine
 10
1704.928329971653
 20
1018.875
 30
0.0
 11
1704.928329971653
 21
957.5000000000001
 31
0.0
  0
LINE
  5
C3
330
2B
100
AcDbEntity
  8
寸法
  6
Continuous
 62
     0
370
    -2
100
AcDbLine
 10
1711.928329971652
 20
1018.875
 30
0.0
 11
1711.928329971652
 21
957.5000000000001
 31
0.0
  0
LINE
  5
C4
330
2B
100
AcDbEntity
  8
寸法
  6
Continuous
 62
     0
370
    -2
100
AcDbLine
 10
1689.053329971653
 20
989.25
 30
0.0
 11
1704.928329971653
 21
989.25
 31
0.0
  0
LINE
  5
C5
330
2B
100
AcDbEntity
  8
寸法
  6
Continuous
 62
     0
370
    -2
100
AcDbLine
 10
1711.928329971652
 20
989.25
 30
0.0
 11
1727.803329971652
 21
989.25
 31
0.0
  0
LINE
  5
C6
330
2B
100
AcDbEntity
  8
寸法
  6
Continuous
 62
     0
370
    -2
100
AcDbLine
 10
1711.928329971652
 20
989.25
 30
0.0
 11
1771.803329971653
 21
989.25
 31
0.0
  0
LINE
  5
C7
330
2B
100
AcDbEntity
  8
寸法
  6
Continuous
 62
     0
370
    -2
100
AcDbLine
 10
1704.928329971653
 20
989.25
 30
0.0
 11
1711.928329971652
 21
989.25
 31
0.0
  0
LINE
  5
C8
330
2B
100
AcDbEntity
  8
寸法
  6
Continuous
 62
     0
370
    20
100
AcDbLine
 10
1716.153650122989
 20
1000.475320151336
 30
0.0
 11
1693.703009820317
 21
978.0246798486636
 31
0.0
  0
LINE
  5
C9
330
2B
100
AcDbEntity
  8
寸法
  6
Continuous
 62
     0
370
    20
100
AcDbLine
 10
1700.703009820317
 20
978.0246798486636
 30
0.0
 11
1723.153650122989
 21
1000.475320151336
 31
0.0
  0
WIPEOUT
  5
CA
330
2B
100
AcDbEntity
  8
寸法
  6
Continuous
 62
     0
 92
      276
310
1401000003000000800000000A00000091D0219CB66F9B40FEFFFFFFFF688F40000000000000000000000000000000000000000000000000000000000000F03F000000000000F03F000000000000000000000000000000000000000000000000000000000000F03F000000000000000041634462576970656F757420285769
310
70654F75742900000084000000060000000500000091D0219CB66F9B40FEFFFFFFFF688F40000000000000000091D0219C36AF9B40FEFFFFFFFF688F40000000000000000091D0219C36AF9B40FFFFFFFF7F339040000000000000000091D0219CB66F9B40FFFFFFFF7F339040000000000000000091D0219CB66F9B40FEFF
310
FFFFFF688F4000000000000000000800000015000000
370
    -2
100
AcDbWipeout
 90
        0
 10
1755.928329971652
 20
1366.264680222648
 30
0.0
 11
31.75
 21
0.0
 31
0.0
 12
0.0
 22
31.75
 32
0.0
 13
1.0
 23
1.0
340
0
 70
     7
280
     1
281
    50
282
    50
283
     0
360
0
 71
     2
 91
        5
 14
-0.5
 24
11.87447811724876
 14
0.0
 24
11.87447811724876
 14
0.0
 24
10.87447811724876
 14
-0.5
 24
10.87447811724876
 14
-0.5
 24
11.87447811724876
  0
MTEXT
  5
CB
330
2B
100
AcDbEntity
  8
寸法
 62
     0
100
AcDbMText
 10
1755.928329971652
 20
1034.0026171875
 30
0.0
 40
24.4326171875
 41
0.0
 71
     1
 72
     1
  1
7
  7
ＭＳ ゴシック
 73
     1
 44
0.7828267384257845
1001
ACAD
1000
MTEXTBEGIN
1070
    73
1070
     1
1070
    44
1040
0.7828267384257845
1070
    74
1070
     0
1000
MTEXTEND
  0
POINT
  5
CC
330
2B
100
AcDbEntity
  8
Defpoints
 62
     0
370
     0
100
AcDbPoint
 10
1711.928329971652
 20
1034.75
 30
0.0
  0
POINT
  5
CD
330
2B
100
AcDbEntity
  8
Defpoints
 62
     0
370
     0
100
AcDbPoint
 10
1704.928329971653
 20
1034.75
 30
0.0
  0
POINT
  5
CE
330
2B
100
AcDbEntity
  8
Defpoints
 62
     0
370
     0
100
AcDbPoint
 10
1704.928329971653
 20
989.25
 30
0.0
  0
ENDBLK
  5
CF
330
2B
100
AcDbEntity
  8
寸法
100
AcDbBlockEnd
  0
BLOCK
  5
D0
330
2C
100
AcDbEntity
  8
寸法
100
AcDbBlockBegin
  2
*D10
 70
     1
 10
0.0
 20
0.0
 30
0.0
  3
*D10
  1

  0
LINE
  5
D1
330
2C
100
AcDbEntity
  8
寸法
  6
Continuous
 62
     0
370
    -2
100
AcDbLine
 10
1705.0
 20
737.1249999999998
 30
0.0
 11
1705.0
 21
562.0
 31
0.0
  0
LINE
  5
D2
330
2C
100
AcDbEntity
  8
寸法
  6
Continuous
 62
     0
370
    -2
100
AcDbLine
 10
1699.0
 20
737.1249999999998
 30
0.0
 11
1699.0
 21
562.0
 31
0.0
  0
LINE
  5
D3
330
2C
100
AcDbEntity
  8
寸法
  6
Continuous
 62
     0
370
    -2
100
AcDbLine
 10
1720.875
 20
593.75
 30
0.0
 11
1705.0
 21
593.75
 31
0.0
  0
LINE
  5
D4
330
2C
100
AcDbEntity
  8
寸法
  6
Continuous
 62
     0
370
    -2
100
AcDbLine
 10
1699.0
 20
593.75
 30
0.0
 11
1683.125
 21
593.75
 31
0.0
  0
LINE
  5
D5
330
2C
100
AcDbEntity
  8
寸法
  6
Continuous
 62
     0
370
    -2
100
AcDbLine
 10
1705.0
 20
593.75
 30
0.0
 11
1729.25
 21
593.75
 31
0.0
  0
LINE
  5
D6
330
2C
100
AcDbEntity
  8
寸法
  6
Continuous
 62
     0
370
    -2
100
AcDbLine
 10
1705.0
 20
593.75
 30
0.0
 11
1699.0
 21
593.75
 31
0.0
  0
LINE
  5
D7
330
2C
100
AcDbEntity
  8
寸法
  6
Continuous
 62
     0
370
    20
100
AcDbLine
 10
1693.774679848663
 20
582.5246798486634
 30
0.0
 11
1716.225320151336
 21
604.9753201513364
 31
0.0
  0
LINE
  5
D8
330
2C
100
AcDbEntity
  8
寸法
  6
Continuous
 62
     0
370
    20
100
AcDbLine
 10
1710.225320151336
 20
604.9753201513364
 30
0.0
 11
1687.774679848663
 21
582.5246798486634
 31
0.0
  0
WIPEOUT
  5
D9
330
2C
100
AcDbEntity
  8
寸法
  6
Continuous
 62
     0
 92
      276
310
1401000003000000800000000A0000000000000080C59A4002000000000D8340000000000000000000000000000000000000000000000000000000000000F03F000000000000F03F000000000000000000000000000000000000000000000000000000000000F03F000000000000000041634462576970656F757420285769
310
70654F7574290000008400000006000000050000000000000080C59A4002000000000D834000000000000000000000000000059B4002000000000D834000000000000000000000000000059B4002000000000B844000000000000000000000000080C59A4002000000000B844000000000000000000000000080C59A400200
310
0000000D834000000000000000000800000015000000
370
    -2
100
AcDbWipeout
 90
        0
 10
1713.375
 20
970.7646802226481
 30
0.0
 11
31.75
 21
0.0
 31
0.0
 12
0.0
 22
31.75
 32
0.0
 13
1.0
 23
1.0
340
0
 70
     7
280
     1
281
    50
282
    50
283
     0
360
0
 71
     2
 91
        5
 14
-0.5
 24
11.87447811724875
 14
0.0
 24
11.87447811724875
 14
0.0
 24
10.87447811724875
 14
-0.5
 24
10.87447811724875
 14
-0.5
 24
11.87447811724875
  0
MTEXT
  5
DA
330
2C
100
AcDbEntity
  8
寸法
 62
     0
100
AcDbMText
 10
1713.375
 20
638.5026171875002
 30
0.0
 40
24.4326171875
 41
0.0
 71
     1
 72
     1
  1
6
  7
ＭＳ ゴシック
 73
     1
 44
0.7828267384257845
1001
ACAD
1000
MTEXTBEGIN
1070
    73
1070
     1
1070
    44
1040
0.7828267384257845
1070
    74
1070
     0
1000
MTEXTEND
  0
POINT
  5
DB
330
2C
100
AcDbEntity
  8
Defpoints
 62
     0
370
     0
100
AcDbPoint
 10
1699.0
 20
753.0
 30
0.0
  0
POINT
  5
DC
330
2C
100
AcDbEntity
  8
Defpoints
 62
     0
370
     0
100
AcDbPoint
 10
1705.0
 20
753.0
 30
0.0
  0
POINT
  5
DD
330
2C
100
AcDbEntity
  8
Defpoints
 62
     0
370
     0
100
AcDbPoint
 10
1705.0
 20
593.75
 30
0.0
  0
ENDBLK
  5
DE
330
2C
100
AcDbEntity
  8
寸法
100
AcDbBlockEnd
  0
BLOCK
  5
DF
330
2D
100
AcDbEntity
  8
寸法
100
AcDbBlockBegin
  2
*D11
 70
     1
 10
0.0
 20
0.0
 30
0.0
  3
*D11
  1

  0
LINE
  5
E0
330
2D
100
AcDbEntity
  8
寸法
  6
Continuous
 62
     0
370
    -2
100
AcDbLine
 10
65.1724278330148
 20
1154.0
 30
0.0
 11
-106.7025721669852
 21
1154.0
 31
0.0
  0
LINE
  5
E1
330
2D
100
AcDbEntity
  8
寸法
  6
Continuous
 62
     0
370
    -2
100
AcDbLine
 10
65.1724278330148
 20
754.0
 30
0.0
 11
-106.7025721669852
 21
754.0
 31
0.0
  0
LINE
  5
E2
330
2D
100
AcDbEntity
  8
寸法
  6
Continuous
 62
     0
370
    -2
100
AcDbLine
 10
-74.95257216698519
 20
1169.875
 30
0.0
 11
-74.95257216698519
 21
1154.0
 31
0.0
  0
LINE
  5
E3
330
2D
100
AcDbEntity
  8
寸法
  6
Continuous
 62
     0
370
    -2
100
AcDbLine
 10
-74.95257216698519
 20
754.0
 30
0.0
 11
-74.95257216698519
 21
738.125
 31
0.0
  0
LINE
  5
E4
330
2D
100
AcDbEntity
  8
寸法
  6
Continuous
 62
     0
370
    -2
100
AcDbLine
 10
-74.95257216698519
 20
1154.0
 30
0.0
 11
-74.95257216698519
 21
754.0
 31
0.0
  0
LINE
  5
E5
330
2D
100
AcDbEntity
  8
寸法
  6
Continuous
 62
     0
370
    20
100
AcDbLine
 10
-63.72725201564867
 20
1142.774679848663
 30
0.0
 11
-86.17789231832171
 21
1165.225320151336
 31
0.0
  0
LINE
  5
E6
330
2D
100
AcDbEntity
  8
寸法
  6
Continuous
 62
     0
370
    20
100
AcDbLine
 10
-86.17789231832171
 20
765.2253201513364
 30
0.0
 11
-63.72725201564867
 21
742.7746798486634
 31
0.0
  0
WIPEOUT
  5
E7
330
2D
100
AcDbEntity
  8
寸法
  6
Continuous
 62
     0
 92
      276
310
1401000003000000800000000A000000011240F1F6A45EC0E2381EFF7F118D40000000000000000000000000000000000000000000000000000000000000F03F000000000000F03F000000000000000000000000000000000000000000000000000000000000F03F000000000000000041634462576970656F757420285769
310
70654F757429000000840000000600000005000000011240F1F6A45EC0E2381EFF7F118D400000000000000000011240F1F6B456C0E2381EFF7F118D400000000000000000011240F1F6B456C01AC7E100808E8E400000000000000000011240F1F6A45EC01AC7E100808E8E400000000000000000011240F1F6A45EC0E238
310
1EFF7F118D4000000000000000000800000015000000
370
    -2
100
AcDbWipeout
 90
        0
 10
-122.5775721669852
 20
1291.327178540472
 30
0.0
 11
47.62500336435107
 21
0.0
 31
0.0
 12
0.0
 22
47.62500336435107
 32
0.0
 13
1.0
 23
1.0
340
0
 70
     7
280
     1
281
    50
282
    50
283
     0
360
0
 71
     2
 91
        5
 14
0.1666666195716419
 24
8.082984875817837
 14
0.1666666195716419
 24
7.082984875817841
 14
-0.5
 24
7.082984875817841
 14
-0.5
 24
8.082984875817837
 14
0.1666666195716419
 24
8.082984875817837
  0
MTEXT
  5
E8
330
2D
100
AcDbEntity
  8
寸法
 62
     0
100
AcDbMText
 10
-119.7051893544851
 20
930.1874983178244
 30
0.0
 40
24.4326171875
 41
0.0
 71
     1
 72
     1
  1
400
  7
ＭＳ ゴシック
 11
0.0
 21
1.0
 31
0.0
 73
     1
 44
0.7828267384257845
1001
ACAD
1000
MTEXTBEGIN
1070
    73
1070
     1
1070
    44
1040
0.7828267384257845
1070
    74
1070
     0
1000
MTEXTEND
  0
POINT
  5
E9
330
2D
100
AcDbEntity
  8
Defpoints
 62
     0
370
     0
100
AcDbPoint
 10
81.0474278330148
 20
754.0
 30
0.0
  0
POINT
  5
EA
330
2D
100
AcDbEntity
  8
Defpoints
 62
     0
370
     0
100
AcDbPoint
 10
81.0474278330148
 20
1154.0
 30
0.0
  0
POINT
  5
EB
330
2D
100
AcDbEntity
  8
Defpoints
 62
     0
370
     0
100
AcDbPoint
 10
-74.95257216698519
 20
1154.0
 30
0.0
  0
ENDBLK
  5
EC
330
2D
100
AcDbEntity
  8
寸法
100
AcDbBlockEnd
  0
BLOCK
  5
ED
330
2E
100
AcDbEntity
  8
寸法
100
AcDbBlockBegin
  2
*D12
 70
     1
 10
0.0
 20
0.0
 30
0.0
  3
*D12
  1

  0
LINE
  5
EE
330
2E
100
AcDbEntity
  8
寸法
  6
Continuous
 62
     0
370
    -2
100
AcDbLine
 10
60.0
 20
774.1249999999999
 30
0.0
 11
60.0
 21
519.4222829376614
 31
0.0
  0
LINE
  5
EF
330
2E
100
AcDbEntity
  8
寸法
  6
Continuous
 62
     0
370
    -2
100
AcDbLine
 10
270.0
 20
690.209945435796
 30
0.0
 11
270.0
 21
519.4222829376614
 31
0.0
  0
LINE
  5
F0
330
2E
100
AcDbEntity
  8
寸法
  6
Continuous
 62
     0
370
    -2
100
AcDbLine
 10
44.125
 20
551.1722829376614
 30
0.0
 11
60.0
 21
551.1722829376614
 31
0.0
  0
LINE
  5
F1
330
2E
100
AcDbEntity
  8
寸法
  6
Continuous
 62
     0
370
    -2
100
AcDbLine
 10
270.0
 20
551.1722829376614
 30
0.0
 11
285.875
 21
551.1722829376614
 31
0.0
  0
LINE
  5
F2
330
2E
100
AcDbEntity
  8
寸法
  6
Continuous
 62
     0
370
    -2
100
AcDbLine
 10
60.0
 20
551.1722829376614
 30
0.0
 11
270.0
 21
551.1722829376614
 31
0.0
  0
LINE
  5
F3
330
2E
100
AcDbEntity
  8
寸法
  6
Continuous
 62
     0
370
    20
100
AcDbLine
 10
71.22532015133652
 20
562.3976030889976
 30
0.0
 11
48.77467984866347
 21
539.946962786325
 31
0.0
  0
LINE
  5
F4
330
2E
100
AcDbEntity
  8
寸法
  6
Continuous
 62
     0
370
    20
100
AcDbLine
 10
258.7746798486636
 20
539.946962786325
 30
0.0
 11
281.2253201513364
 21
562.3976030889976
 31
0.0
  0
WIPEOUT
  5
F5
330
2E
100
AcDbEntity
  8
寸法
  6
Continuous
 62
     0
 92
      276
310
1401000003000000800000000A0000008FE378FCFFA561405277E0D560B88140000000000000000000000000000000000000000000000000000000000000F03F000000000000F03F000000000000000000000000000000000000000000000000000000000000F03F000000000000000041634462576970656F757420285769
310
70654F7574290000008400000006000000050000008FE378FCFFA561405277E0D560B881400000000000000000731C8703009A67405277E0D560B881400000000000000000731C8703009A67405377E0D560B6824000000000000000008FE378FCFFA561405377E0D560B6824000000000000000008FE378FCFFA561405277
310
E0D560B8814000000000000000000800000015000000
370
    -2
100
AcDbWipeout
 90
        0
 10
141.1874983178245
 20
928.1869631603095
 30
0.0
 11
47.62500336435107
 21
0.0
 31
0.0
 12
0.0
 22
47.62500336435107
 32
0.0
 13
1.0
 23
1.0
340
0
 70
     7
280
     1
281
    50
282
    50
283
     0
360
0
 71
     2
 91
        5
 14
-0.5
 24
8.082984875817842
 14
0.5
 24
8.082984875817842
 14
0.5
 24
7.416318256246199
 14
-0.5
 24
7.416318256246199
 14
-0.5
 24
8.082984875817842
  0
MTEXT
  5
F6
330
2E
100
AcDbEntity
  8
寸法
 62
     0
100
AcDbMText
 10
141.1874983178245
 20
595.9249001251615
 30
0.0
 40
24.4326171875
 41
0.0
 71
     1
 72
     1
  1
210
  7
ＭＳ ゴシック
 73
     1
 44
0.7828267384257845
1001
ACAD
1000
MTEXTBEGIN
1070
    73
1070
     1
1070
    44
1040
0.7828267384257845
1070
    74
1070
     0
1000
MTEXTEND
  0
POINT
  5
F7
330
2E
100
AcDbEntity
  8
Defpoints
 62
     0
370
     0
100
AcDbPoint
 10
270.0
 20
706.084945435796
 30
0.0
  0
POINT
  5
F8
330
2E
100
AcDbEntity
  8
Defpoints
 62
     0
370
     0
100
AcDbPoint
 10
60.0
 20
790.0
 30
0.0
  0
POINT
  5
F9
330
2E
100
AcDbEntity
  8
Defpoints
 62
     0
370
     0
100
AcDbPoint
 10
60.0
 20
551.1722829376614
 30
0.0
  0
ENDBLK
  5
FA
330
2E
100
AcDbEntity
  8
寸法
100
AcDbBlockEnd
  0
BLOCK
  5
FB
330
2F
100
AcDbEntity
  8
寸法
100
AcDbBlockBegin
  2
*D13
 70
     1
 10
0.0
 20
0.0
 30
0.0
  3
*D13
  1

  0
LINE
  5
FC
330
2F
100
AcDbEntity
  8
寸法
  6
Continuous
 62
     0
370
    -2
100
AcDbLine
 10
763.8749999999999
 20
1190.0
 30
0.0
 11
861.7499999999999
 21
1190.0
 31
0.0
  0
LINE
  5
FD
330
2F
100
AcDbEntity
  8
寸法
  6
Continuous
 62
     0
370
    -2
100
AcDbLine
 10
763.8749999999999
 20
954.0
 30
0.0
 11
861.7499999999999
 21
954.0
 31
0.0
  0
LINE
  5
FE
330
2F
100
AcDbEntity
  8
寸法
  6
Continuous
 62
     0
370
    -2
100
AcDbLine
 10
830.0
 20
1205.875
 30
0.0
 11
830.0
 21
1190.0
 31
0.0
  0
LINE
  5
FF
330
2F
100
AcDbEntity
  8
寸法
  6
Continuous
 62
     0
370
    -2
100
AcDbLine
 10
830.0
 20
954.0
 30
0.0
 11
830.0
 21
938.1249999999999
 31
0.0
  0
LINE
  5
100
330
2F
100
AcDbEntity
  8
寸法
  6
Continuous
 62
     0
370
    -2
100
AcDbLine
 10
830.0
 20
1190.0
 30
0.0
 11
830.0
 21
954.0
 31
0.0
  0
LINE
  5
101
330
2F
100
AcDbEntity
  8
寸法
  6
Continuous
 62
     0
370
    20
100
AcDbLine
 10
841.2253201513362
 20
1178.774679848663
 30
0.0
 11
818.7746798486632
 21
1201.225320151336
 31
0.0
  0
LINE
  5
102
330
2F
100
AcDbEntity
  8
寸法
  6
Continuous
 62
     0
370
    20
100
AcDbLine
 10
818.7746798486632
 20
965.2253201513364
 30
0.0
 11
841.2253201513362
 21
942.7746798486635
 31
0.0
  0
WIPEOUT
  5
103
330
2F
100
AcDbEntity
  8
寸法
  6
Continuous
 62
     0
 92
      276
310
1401000003000000800000000A0000000000000000738840711C8FFFBF609040000000000000000000000000000000000000000000000000000000000000F03F000000000000F03F000000000000000000000000000000000000000000000000000000000000F03F000000000000000041634462576970656F757420285769
310
70654F7574290000008400000006000000050000000000000000738840711C8FFFBF60904000000000000000000000000000718940711C8FFFBF609040000000000000000000000000007189408DE37000401F9140000000000000000000000000007388408DE37000401F914000000000000000000000000000738840711C
310
8FFFBF60904000000000000000000800000015000000
370
    -2
100
AcDbWipeout
 90
        0
 10
782.375
 20
1409.327178540472
 30
0.0
 11
47.62500336435107
 21
0.0
 31
0.0
 12
0.0
 22
47.62500336435107
 32
0.0
 13
1.0
 23
1.0
340
0
 70
     7
280
     1
281
    50
282
    50
283
     0
360
0
 71
     2
 91
        5
 14
0.1666666195716419
 24
8.082984875817837
 14
0.1666666195716419
 24
7.082984875817841
 14
-0.5
 24
7.082984875817841
 14
-0.5
 24
8.082984875817837
 14
0.1666666195716419
 24
8.082984875817837
  0
MTEXT
  5
104
330
2F
100
AcDbEntity
  8
寸法
 62
     0
100
AcDbMText
 10
785.2473828124998
 20
1048.187498317824
 30
0.0
 40
24.4326171875
 41
0.0
 71
     1
 72
     1
  1
236
  7
ＭＳ ゴシック
 11
0.0
 21
1.0
 31
0.0
 73
     1
 44
0.7828267384257845
1001
ACAD
1000
MTEXTBEGIN
1070
    73
1070
     1
1070
    44
1040
0.7828267384257845
1070
    74
1070
     0
1000
MTEXTEND
  0
POINT
  5
105
330
2F
100
AcDbEntity
  8
Defpoints
 62
     0
370
     0
100
AcDbPoint
 10
748.0
 20
954.0
 30
0.0
  0
POINT
  5
106
330
2F
100
AcDbEntity
  8
Defpoints
 62
     0
370
     0
100
AcDbPoint
 10
748.0
 20
1190.0
 30
0.0
  0
POINT
  5
107
330
2F
100
AcDbEntity
  8
Defpoints
 62
     0
370
     0
100
AcDbPoint
 10
830.0
 20
1190.0
 30
0.0
  0
ENDBLK
  5
108
330
2F
100
AcDbEntity
  8
寸法
100
AcDbBlockEnd
  0
BLOCK
  5
109
330
30
100
AcDbEntity
  8
寸法
100
AcDbBlockBegin
  2
*D14
 70
     1
 10
0.0
 20
0.0
 30
0.0
  3
*D14
  1

  0
LINE
  5
10A
330
30
100
AcDbEntity
  8
寸法
  6
Continuous
 62
     0
370
    -2
100
AcDbLine
 10
75.0
 20
1251.875
 30
0.0
 11
75.0
 21
1441.75
 31
0.0
  0
LINE
  5
10B
330
30
100
AcDbEntity
  8
寸法
  6
Continuous
 62
     0
370
    -2
100
AcDbLine
 10
115.0
 20
1251.875
 30
0.0
 11
115.0
 21
1441.75
 31
0.0
  0
LINE
  5
10C
330
30
100
AcDbEntity
  8
寸法
  6
Continuous
 62
     0
370
    -2
100
AcDbLine
 10
59.125
 20
1410.0
 30
0.0
 11
75.0
 21
1410.0
 31
0.0
  0
LINE
  5
10D
330
30
100
AcDbEntity
  8
寸法
  6
Continuous
 62
     0
370
    -2
100
AcDbLine
 10
115.0
 20
1410.0
 30
0.0
 11
130.875
 21
1410.0
 31
0.0
  0
LINE
  5
10E
330
30
100
AcDbEntity
  8
寸法
  6
Continuous
 62
     0
370
    -2
100
AcDbLine
 10
75.0
 20
1410.0
 30
0.0
 11
115.0
 21
1410.0
 31
0.0
  0
LINE
  5
10F
330
30
100
AcDbEntity
  8
寸法
  6
Continuous
 62
     0
370
    20
100
AcDbLine
 10
86.22532015133641
 20
1421.225320151336
 30
0.0
 11
63.77467984866347
 21
1398.774679848664
 31
0.0
  0
LINE
  5
110
330
30
100
AcDbEntity
  8
寸法
  6
Continuous
 62
     0
370
    20
100
AcDbLine
 10
103.7746798486636
 20
1398.774679848664
 30
0.0
 11
126.2253201513364
 21
1421.225320151336
 31
0.0
  0
WIPEOUT
  5
111
330
30
100
AcDbEntity
  8
寸法
  6
Continuous
 62
     0
 92
      276
310
1401000003000000800000000A0000000000000000C85340FFFFFFFF7F479640000000000000000000000000000000000000000000000000000000000000F03F000000000000F03F000000000000000000000000000000000000000000000000000000000000F03F000000000000000041634462576970656F757420285769
310
70654F7574290000008400000006000000050000000000000000C85340FFFFFFFF7F47964000000000000000000000000000B85B40FFFFFFFF7F47964000000000000000000000000000B85B40FFFFFFFF7FC6964000000000000000000000000000C85340FFFFFFFF7FC6964000000000000000000000000000C85340FFFF
310
FFFF7F47964000000000000000000800000015000000
370
    -2
100
AcDbWipeout
 90
        0
 10
79.125
 20
1787.014680222648
 30
0.0
 11
31.75
 21
0.0
 31
0.0
 12
0.0
 22
31.75
 32
0.0
 13
1.0
 23
1.0
340
0
 70
     7
280
     1
281
    50
282
    50
283
     0
360
0
 71
     2
 91
        5
 14
-0.5
 24
11.87447811724876
 14
0.5
 24
11.87447811724876
 14
0.5
 24
10.87447811724876
 14
-0.5
 24
10.87447811724876
 14
-0.5
 24
11.87447811724876
  0
MTEXT
  5
112
330
30
100
AcDbEntity
  8
寸法
 62
     0
100
AcDbMText
 10
79.125
 20
1454.7526171875
 30
0.0
 40
24.4326171875
 41
0.0
 71
     1
 72
     1
  1
40
  7
ＭＳ ゴシック
 73
     1
 44
0.7828267384257845
1001
ACAD
1000
MTEXTBEGIN
1070
    73
1070
     1
1070
    44
1040
0.7828267384257845
1070
    74
1070
     0
1000
MTEXTEND
  0
POINT
  5
113
330
30
100
AcDbEntity
  8
Defpoints
 62
     0
370
     0
100
AcDbPoint
 10
115.0
 20
1236.0
 30
0.0
  0
POINT
  5
114
330
30
100
AcDbEntity
  8
Defpoints
 62
     0
370
     0
100
AcDbPoint
 10
75.0
 20
1236.0
 30
0.0
  0
POINT
  5
115
330
30
100
AcDbEntity
  8
Defpoints
 62
     0
370
     0
100
AcDbPoint
 10
75.0
 20
1410.0
 30
0.0
  0
ENDBLK
  5
116
330
30
100
AcDbEntity
  8
寸法
100
AcDbBlockEnd
  0
BLOCK
  5
117
330
31
100
AcDbEntity
  8
寸法
100
AcDbBlockBegin
  2
*D15
 70
     1
 10
0.0
 20
0.0
 30
0.0
  3
*D15
  1

  0
LINE
  5
118
330
31
100
AcDbEntity
  8
寸法
  6
Continuous
 62
     0
370
    -2
100
AcDbLine
 10
115.0
 20
1425.875
 30
0.0
 11
115.0
 21
1441.75
 31
0.0
  0
LINE
  5
119
330
31
100
AcDbEntity
  8
寸法
  6
Continuous
 62
     0
370
    -2
100
AcDbLine
 10
425.0
 20
1247.875
 30
0.0
 11
425.0
 21
1441.75
 31
0.0
  0
LINE
  5
11A
330
31
100
AcDbEntity
  8
寸法
  6
Continuous
 62
     0
370
    -2
100
AcDbLine
 10
99.12500000000001
 20
1410.0
 30
0.0
 11
115.0
 21
1410.0
 31
0.0
  0
LINE
  5
11B
330
31
100
AcDbEntity
  8
寸法
  6
Continuous
 62
     0
370
    -2
100
AcDbLine
 10
425.0
 20
1410.0
 30
0.0
 11
440.875
 21
1410.0
 31
0.0
  0
LINE
  5
11C
330
31
100
AcDbEntity
  8
寸法
  6
Continuous
 62
     0
370
    -2
100
AcDbLine
 10
115.0
 20
1410.0
 30
0.0
 11
425.0
 21
1410.0
 31
0.0
  0
LINE
  5
11D
330
31
100
AcDbEntity
  8
寸法
  6
Continuous
 62
     0
370
    20
100
AcDbLine
 10
126.2253201513364
 20
1421.225320151336
 30
0.0
 11
103.7746798486636
 21
1398.774679848664
 31
0.0
  0
LINE
  5
11E
330
31
100
AcDbEntity
  8
寸法
  6
Continuous
 62
     0
370
    20
100
AcDbLine
 10
413.7746798486636
 20
1398.774679848664
 30
0.0
 11
436.2253201513363
 21
1421.225320151336
 31
0.0
  0
WIPEOUT
  5
11F
330
31
100
AcDbEntity
  8
寸法
  6
Continuous
 62
     0
 92
      276
310
1401000003000000800000000A00000090E378FCFFC56E400000000080479640000000000000000000000000000000000000000000000000000000000000F03F000000000000F03F000000000000000000000000000000000000000000000000000000000000F03F000000000000000041634462576970656F757420285769
310
70654F75742900000084000000060000000500000090E378FCFFC56E40000000008047964000000000000000003A8EC301005D7240000000008047964000000000000000003A8EC301005D72400000000080C69640000000000000000090E378FCFFC56E400000000080C69640000000000000000090E378FCFFC56E400000
310
00008047964000000000000000000800000015000000
370
    -2
100
AcDbWipeout
 90
        0
 10
246.1874983178245
 20
1787.014680222648
 30
0.0
 11
47.62500336435107
 21
0.0
 31
0.0
 12
0.0
 22
47.62500336435107
 32
0.0
 13
1.0
 23
1.0
340
0
 70
     7
280
     1
281
    50
282
    50
283
     0
360
0
 71
     2
 91
        5
 14
-0.5
 24
8.082984875817842
 14
0.5
 24
8.082984875817842
 14
0.5
 24
7.416318256246201
 14
-0.5
 24
7.416318256246201
 14
-0.5
 24
8.082984875817842
  0
MTEXT
  5
120
330
31
100
AcDbEntity
  8
寸法
 62
     0
100
AcDbMText
 10
246.1874983178245
 20
1454.7526171875
 30
0.0
 40
24.4326171875
 41
0.0
 71
     1
 72
     1
  1
310
  7
ＭＳ ゴシック
 73
     1
 44
0.7828267384257845
1001
ACAD
1000
MTEXTBEGIN
1070
    73
1070
     1
1070
    44
1040
0.7828267384257845
1070
    74
1070
     0
1000
MTEXTEND
  0
POINT
  5
121
330
31
100
AcDbEntity
  8
Defpoints
 62
     0
370
     0
100
AcDbPoint
 10
425.0
 20
1232.0
 30
0.0
  0
POINT
  5
122
330
31
100
AcDbEntity
  8
Defpoints
 62
     0
370
     0
100
AcDbPoint
 10
115.0
 20
1410.0
 30
0.0
  0
POINT
  5
123
330
31
100
AcDbEntity
  8
Defpoints
 62
     0
370
     0
100
AcDbPoint
 10
115.0
 20
1410.0
 30
0.0
  0
ENDBLK
  5
124
330
31
100
AcDbEntity
  8
寸法
100
AcDbBlockEnd
  0
BLOCK
  5
125
330
32
100
AcDbEntity
  8
寸法
100
AcDbBlockBegin
  2
*D16
 70
     1
 10
0.0
 20
0.0
 30
0.0
  3
*D16
  1

  0
LINE
  5
126
330
32
100
AcDbEntity
  8
寸法
  6
Continuous
 62
     0
370
    -2
100
AcDbLine
 10
425.0
 20
1263.75
 30
0.0
 11
425.0
 21
1441.75
 31
0.0
  0
LINE
  5
127
330
32
100
AcDbEntity
  8
寸法
  6
Continuous
 62
     0
370
    -2
100
AcDbLine
 10
475.0
 20
1279.875
 30
0.0
 11
475.0
 21
1441.75
 31
0.0
  0
LINE
  5
128
330
32
100
AcDbEntity
  8
寸法
  6
Continuous
 62
     0
370
    -2
100
AcDbLine
 10
409.125
 20
1410.0
 30
0.0
 11
425.0
 21
1410.0
 31
0.0
  0
LINE
  5
129
330
32
100
AcDbEntity
  8
寸法
  6
Continuous
 62
     0
370
    -2
100
AcDbLine
 10
475.0
 20
1410.0
 30
0.0
 11
490.875
 21
1410.0
 31
0.0
  0
LINE
  5
12A
330
32
100
AcDbEntity
  8
寸法
  6
Continuous
 62
     0
370
    -2
100
AcDbLine
 10
425.0
 20
1410.0
 30
0.0
 11
475.0
 21
1410.0
 31
0.0
  0
LINE
  5
12B
330
32
100
AcDbEntity
  8
寸法
  6
Continuous
 62
     0
370
    20
100
AcDbLine
 10
436.2253201513363
 20
1421.225320151336
 30
0.0
 11
413.7746798486636
 21
1398.774679848664
 31
0.0
  0
LINE
  5
12C
330
32
100
AcDbEntity
  8
寸法
  6
Continuous
 62
     0
370
    20
100
AcDbLine
 10
463.7746798486636
 20
1398.774679848664
 30
0.0
 11
486.2253201513363
 21
1421.225320151336
 31
0.0
  0
WIPEOUT
  5
12D
330
32
100
AcDbEntity
  8
寸法
  6
Continuous
 62
     0
 92
      276
310
1401000003000000800000000A0000000000000000227B40FFFFFFFF7F479640000000000000000000000000000000000000000000000000000000000000F03F000000000000F03F000000000000000000000000000000000000000000000000000000000000F03F000000000000000041634462576970656F757420285769
310
70654F7574290000008400000006000000050000000000000000227B40FFFFFFFF7F479640000000000000000000000000001E7D40FFFFFFFF7F479640000000000000000000000000001E7D40FFFFFFFF7FC6964000000000000000000000000000227B40FFFFFFFF7FC6964000000000000000000000000000227B40FFFF
310
FFFF7F47964000000000000000000800000015000000
370
    -2
100
AcDbWipeout
 90
        0
 10
434.125
 20
1787.014680222648
 30
0.0
 11
31.75
 21
0.0
 31
0.0
 12
0.0
 22
31.75
 32
0.0
 13
1.0
 23
1.0
340
0
 70
     7
280
     1
281
    50
282
    50
283
     0
360
0
 71
     2
 91
        5
 14
-0.5
 24
11.87447811724876
 14
0.5
 24
11.87447811724876
 14
0.5
 24
10.87447811724876
 14
-0.5
 24
10.87447811724876
 14
-0.5
 24
11.87447811724876
  0
MTEXT
  5
12E
330
32
100
AcDbEntity
  8
寸法
 62
     0
100
AcDbMText
 10
434.125
 20
1454.7526171875
 30
0.0
 40
24.4326171875
 41
0.0
 71
     1
 72
     1
  1
50
  7
ＭＳ ゴシック
 73
     1
 44
0.7828267384257845
1001
ACAD
1000
MTEXTBEGIN
1070
    73
1070
     1
1070
    44
1040
0.7828267384257845
1070
    74
1070
     0
1000
MTEXTEND
  0
POINT
  5
12F
330
32
100
AcDbEntity
  8
Defpoints
 62
     0
370
     0
100
AcDbPoint
 10
475.0
 20
1264.0
 30
0.0
  0
POINT
  5
130
330
32
100
AcDbEntity
  8
Defpoints
 62
     0
370
     0
100
AcDbPoint
 10
425.0
 20
1247.875
 30
0.0
  0
POINT
  5
131
330
32
100
AcDbEntity
  8
Defpoints
 62
     0
370
     0
100
AcDbPoint
 10
425.0
 20
1410.0
 30
0.0
  0
ENDBLK
  5
132
330
32
100
AcDbEntity
  8
寸法
100
AcDbBlockEnd
  0
BLOCK
  5
133
330
33
100
AcDbEntity
  8
寸法
100
AcDbBlockBegin
  2
*D17
 70
     1
 10
0.0
 20
0.0
 30
0.0
  3
*D17
  1

  0
LINE
  5
134
330
33
100
AcDbEntity
  8
寸法
  6
Continuous
 62
     0
370
    -2
100
AcDbLine
 10
475.0
 20
1259.875
 30
0.0
 11
475.0
 21
1441.75
 31
0.0
  0
LINE
  5
135
330
33
100
AcDbEntity
  8
寸法
  6
Continuous
 62
     0
370
    -2
100
AcDbLine
 10
1025.0
 20
1259.875
 30
0.0
 11
1025.0
 21
1441.75
 31
0.0
  0
LINE
  5
136
330
33
100
AcDbEntity
  8
寸法
  6
Continuous
 62
     0
370
    -2
100
AcDbLine
 10
459.125
 20
1410.0
 30
0.0
 11
475.0
 21
1410.0
 31
0.0
  0
LINE
  5
137
330
33
100
AcDbEntity
  8
寸法
  6
Continuous
 62
     0
370
    -2
100
AcDbLine
 10
1025.0
 20
1410.0
 30
0.0
 11
1040.875
 21
1410.0
 31
0.0
  0
LINE
  5
138
330
33
100
AcDbEntity
  8
寸法
  6
Continuous
 62
     0
370
    -2
100
AcDbLine
 10
475.0
 20
1410.0
 30
0.0
 11
1025.0
 21
1410.0
 31
0.0
  0
LINE
  5
139
330
33
100
AcDbEntity
  8
寸法
  6
Continuous
 62
     0
370
    20
100
AcDbLine
 10
486.2253201513363
 20
1421.225320151336
 30
0.0
 11
463.7746798486636
 21
1398.774679848664
 31
0.0
  0
LINE
  5
13A
330
33
100
AcDbEntity
  8
寸法
  6
Continuous
 62
     0
370
    20
100
AcDbLine
 10
1013.774679848663
 20
1398.774679848664
 30
0.0
 11
1036.225320151336
 21
1421.225320151336
 31
0.0
  0
WIPEOUT
  5
13B
330
33
100
AcDbEntity
  8
寸法
  6
Continuous
 62
     0
 92
      276
310
1401000003000000800000000A000000E4381EFF7FB186400000000080479640000000000000000000000000000000000000000000000000000000000000F03F000000000000F03F000000000000000000000000000000000000000000000000000000000000F03F000000000000000041634462576970656F757420285769
310
70654F757429000000840000000600000005000000E4381EFF7FB18640000000008047964000000000000000001CC7E100802E8840000000008047964000000000000000001CC7E100802E88400000000080C696400000000000000000E4381EFF7FB186400000000080C696400000000000000000E4381EFF7FB186400000
310
00008047964000000000000000000800000015000000
370
    -2
100
AcDbWipeout
 90
        0
 10
726.1874983178245
 20
1787.014680222648
 30
0.0
 11
47.62500336435107
 21
0.0
 31
0.0
 12
0.0
 22
47.62500336435107
 32
0.0
 13
1.0
 23
1.0
340
0
 70
     7
280
     1
281
    50
282
    50
283
     0
360
0
 71
     2
 91
        5
 14
-0.5
 24
8.082984875817842
 14
0.4999999999999976
 24
8.082984875817842
 14
0.4999999999999976
 24
7.416318256246201
 14
-0.5
 24
7.416318256246201
 14
-0.5
 24
8.082984875817842
  0
MTEXT
  5
13C
330
33
100
AcDbEntity
  8
寸法
 62
     0
100
AcDbMText
 10
726.1874983178245
 20
1454.7526171875
 30
0.0
 40
24.4326171875
 41
0.0
 71
     1
 72
     1
  1
550
  7
ＭＳ ゴシック
 73
     1
 44
0.7828267384257845
1001
ACAD
1000
MTEXTBEGIN
1070
    73
1070
     1
1070
    44
1040
0.7828267384257845
1070
    74
1070
     0
1000
MTEXTEND
  0
POINT
  5
13D
330
33
100
AcDbEntity
  8
Defpoints
 62
     0
370
     0
100
AcDbPoint
 10
1025.0
 20
1244.0
 30
0.0
  0
POINT
  5
13E
330
33
100
AcDbEntity
  8
Defpoints
 62
     0
370
     0
100
AcDbPoint
 10
475.0
 20
1244.0
 30
0.0
  0
POINT
  5
13F
330
33
100
AcDbEntity
  8
Defpoints
 62
     0
370
     0
100
AcDbPoint
 10
475.0
 20
1410.0
 30
0.0
  0
ENDBLK
  5
140
330
33
100
AcDbEntity
  8
寸法
100
AcDbBlockEnd
  0
BLOCK
  5
141
330
34
100
AcDbEntity
  8
寸法
100
AcDbBlockBegin
  2
*D18
 70
     1
 10
0.0
 20
0.0
 30
0.0
  3
*D18
  1

  0
LINE
  5
142
330
34
100
AcDbEntity
  8
寸法
  6
Continuous
 62
     0
370
    -2
100
AcDbLine
 10
1025.0
 20
1259.875
 30
0.0
 11
1025.0
 21
1441.75
 31
0.0
  0
LINE
  5
143
330
34
100
AcDbEntity
  8
寸法
  6
Continuous
 62
     0
370
    -2
100
AcDbLine
 10
1065.0
 20
1259.875
 30
0.0
 11
1065.0
 21
1441.75
 31
0.0
  0
LINE
  5
144
330
34
100
AcDbEntity
  8
寸法
  6
Continuous
 62
     0
370
    -2
100
AcDbLine
 10
1009.125
 20
1410.0
 30
0.0
 11
1025.0
 21
1410.0
 31
0.0
  0
LINE
  5
145
330
34
100
AcDbEntity
  8
寸法
  6
Continuous
 62
     0
370
    -2
100
AcDbLine
 10
1065.0
 20
1410.0
 30
0.0
 11
1080.875
 21
1410.0
 31
0.0
  0
LINE
  5
146
330
34
100
AcDbEntity
  8
寸法
  6
Continuous
 62
     0
370
    -2
100
AcDbLine
 10
1025.0
 20
1410.0
 30
0.0
 11
1065.0
 21
1410.0
 31
0.0
  0
LINE
  5
147
330
34
100
AcDbEntity
  8
寸法
  6
Continuous
 62
     0
370
    20
100
AcDbLine
 10
1036.225320151336
 20
1421.225320151336
 30
0.0
 11
1013.774679848663
 21
1398.774679848664
 31
0.0
  0
LINE
  5
148
330
34
100
AcDbEntity
  8
寸法
  6
Continuous
 62
     0
370
    20
100
AcDbLine
 10
1053.774679848664
 20
1398.774679848664
 30
0.0
 11
1076.225320151336
 21
1421.225320151336
 31
0.0
  0
WIPEOUT
  5
149
330
34
100
AcDbEntity
  8
寸法
  6
Continuous
 62
     0
 92
      276
310
1401000003000000800000000A0000000000000080149040FFFFFFFF7F479640000000000000000000000000000000000000000000000000000000000000F03F000000000000F03F000000000000000000000000000000000000000000000000000000000000F03F000000000000000041634462576970656F757420285769
310
70654F7574290000008400000006000000050000000000000080149040FFFFFFFF7F47964000000000000000000000000080939040FFFFFFFF7F47964000000000000000000000000080939040FFFFFFFF7FC6964000000000000000000000000080149040FFFFFFFF7FC6964000000000000000000000000080149040FFFF
310
FFFF7F47964000000000000000000800000015000000
370
    -2
100
AcDbWipeout
 90
        0
 10
1029.125
 20
1787.014680222648
 30
0.0
 11
31.75
 21
0.0
 31
0.0
 12
0.0
 22
31.75
 32
0.0
 13
1.0
 23
1.0
340
0
 70
     7
280
     1
281
    50
282
    50
283
     0
360
0
 71
     2
 91
        5
 14
-0.5
 24
11.87447811724876
 14
0.5
 24
11.87447811724876
 14
0.5
 24
10.87447811724876
 14
-0.5
 24
10.87447811724876
 14
-0.5
 24
11.87447811724876
  0
MTEXT
  5
14A
330
34
100
AcDbEntity
  8
寸法
 62
     0
100
AcDbMText
 10
1029.125
 20
1454.7526171875
 30
0.0
 40
24.4326171875
 41
0.0
 71
     1
 72
     1
  1
40
  7
ＭＳ ゴシック
 73
     1
 44
0.7828267384257845
1001
ACAD
1000
MTEXTBEGIN
1070
    73
1070
     1
1070
    44
1040
0.7828267384257845
1070
    74
1070
     0
1000
MTEXTEND
  0
POINT
  5
14B
330
34
100
AcDbEntity
  8
Defpoints
 62
     0
370
     0
100
AcDbPoint
 10
1065.0
 20
1244.0
 30
0.0
  0
POINT
  5
14C
330
34
100
AcDbEntity
  8
Defpoints
 62
     0
370
     0
100
AcDbPoint
 10
1025.0
 20
1244.0
 30
0.0
  0
POINT
  5
14D
330
34
100
AcDbEntity
  8
Defpoints
 62
     0
370
     0
100
AcDbPoint
 10
1025.0
 20
1410.0
 30
0.0
  0
ENDBLK
  5
14E
330
34
100
AcDbEntity
  8
寸法
100
AcDbBlockEnd
  0
BLOCK
  5
14F
330
35
100
AcDbEntity
  8
寸法
100
AcDbBlockBegin
  2
*D19
 70
     1
 10
0.0
 20
0.0
 30
0.0
  3
*D19
  1

  0
LINE
  5
150
330
35
100
AcDbEntity
  8
寸法
  6
Continuous
 62
     0
370
    -2
100
AcDbLine
 10
1065.0
 20
1398.120348944553
 30
0.0
 11
1065.0
 21
1378.057848944554
 31
0.0
  0
LINE
  5
151
330
35
100
AcDbEntity
  8
寸法
  6
Continuous
 62
     0
370
    -2
100
AcDbLine
 10
1080.0
 20
1398.120348944553
 30
0.0
 11
1080.0
 21
1378.057848944554
 31
0.0
  0
LINE
  5
152
330
35
100
AcDbEntity
  8
寸法
  6
Continuous
 62
     0
370
    -2
100
AcDbLine
 10
1049.125
 20
1409.807848944553
 30
0.0
 11
1065.0
 21
1409.807848944553
 31
0.0
  0
LINE
  5
153
330
35
100
AcDbEntity
  8
寸法
  6
Continuous
 62
     0
370
    -2
100
AcDbLine
 10
1080.0
 20
1409.807848944553
 30
0.0
 11
1095.875
 21
1409.807848944553
 31
0.0
  0
LINE
  5
154
330
35
100
AcDbEntity
  8
寸法
  6
Continuous
 62
     0
370
    -2
100
AcDbLine
 10
1080.0
 20
1409.807848944553
 30
0.0
 11
1124.3125
 21
1409.807848944553
 31
0.0
  0
LINE
  5
155
330
35
100
AcDbEntity
  8
寸法
  6
Continuous
 62
     0
370
    -2
100
AcDbLine
 10
1065.0
 20
1409.807848944553
 30
0.0
 11
1080.0
 21
1409.807848944553
 31
0.0
  0
LINE
  5
156
330
35
100
AcDbEntity
  8
寸法
  6
Continuous
 62
     0
370
    20
100
AcDbLine
 10
1076.225320151336
 20
1421.033169095889
 30
0.0
 11
1053.774679848664
 21
1398.582528793217
 31
0.0
  0
LINE
  5
157
330
35
100
AcDbEntity
  8
寸法
  6
Continuous
 62
     0
370
    20
100
AcDbLine
 10
1068.774679848663
 20
1398.582528793217
 30
0.0
 11
1091.225320151336
 21
1421.033169095889
 31
0.0
  0
WIPEOUT
  5
158
330
35
100
AcDbEntity
  8
寸法
  6
Continuous
 62
     0
 92
      276
310
1401000003000000800000000A0000000000000040129140D9F3C03CBB469640000000000000000000000000000000000000000000000000000000000000F03F000000000000F03F000000000000000000000000000000000000000000000000000000000000F03F000000000000000041634462576970656F757420285769
310
70654F7574290000008400000006000000050000000000000040129140D9F3C03CBB46964000000000000000000000000040919140D9F3C03CBB46964000000000000000000000000040919140D9F3C03CBBC5964000000000000000000000000040129140D9F3C03CBBC5964000000000000000000000000040129140D9F3
310
C03CBB46964000000000000000000800000015000000
370
    -2
100
AcDbWipeout
 90
        0
 10
1092.5625
 20
1786.822529167201
 30
0.0
 11
31.75
 21
0.0
 31
0.0
 12
0.0
 22
31.75
 32
0.0
 13
1.0
 23
1.0
340
0
 70
     7
280
     1
281
    50
282
    50
283
     0
360
0
 71
     2
 91
        5
 14
-0.5
 24
11.87447811724876
 14
0.5
 24
11.87447811724876
 14
0.5
 24
10.87447811724876
 14
-0.5
 24
10.87447811724876
 14
-0.5
 24
11.87447811724876
  0
MTEXT
  5
159
330
35
100
AcDbEntity
  8
寸法
 62
     0
100
AcDbMText
 10
1092.5625
 20
1454.560466132052
 30
0.0
 40
24.4326171875
 41
0.0
 71
     1
 72
     1
  1
15
  7
ＭＳ ゴシック
 73
     1
 44
0.7828267384257845
1001
ACAD
1000
MTEXTBEGIN
1070
    73
1070
     1
1070
    44
1040
0.7828267384257845
1070
    74
1070
     0
1000
MTEXTEND
  0
POINT
  5
15A
330
35
100
AcDbEntity
  8
Defpoints
 62
     0
370
     0
100
AcDbPoint
 10
1080.0
 20
1413.995348944554
 30
0.0
  0
POINT
  5
15B
330
35
100
AcDbEntity
  8
Defpoints
 62
     0
370
     0
100
AcDbPoint
 10
1065.0
 20
1413.995348944554
 30
0.0
  0
POINT
  5
15C
330
35
100
AcDbEntity
  8
Defpoints
 62
     0
370
     0
100
AcDbPoint
 10
1065.0
 20
1409.807848944553
 30
0.0
  0
ENDBLK
  5
15D
330
35
100
AcDbEntity
  8
寸法
100
AcDbBlockEnd
  0
BLOCK
  5
15E
330
36
100
AcDbEntity
  8
寸法
100
AcDbBlockBegin
  2
*D20
 70
     1
 10
0.0
 20
0.0
 30
0.0
  3
*D20
  1

  0
LINE
  5
15F
330
36
100
AcDbEntity
  8
寸法
  6
Continuous
 62
     0
370
    -2
100
AcDbLine
 10
75.0
 20
1421.879651055446
 30
0.0
 11
75.0
 21
1441.504651055446
 31
0.0
  0
LINE
  5
160
330
36
100
AcDbEntity
  8
寸法
  6
Continuous
 62
     0
370
    -2
100
AcDbLine
 10
60.0
 20
1421.879651055446
 30
0.0
 11
60.0
 21
1441.504651055446
 31
0.0
  0
LINE
  5
161
330
36
100
AcDbEntity
  8
寸法
  6
Continuous
 62
     0
370
    -2
100
AcDbLine
 10
90.875
 20
1409.754651055446
 30
0.0
 11
75.0
 21
1409.754651055446
 31
0.0
  0
LINE
  5
162
330
36
100
AcDbEntity
  8
寸法
  6
Continuous
 62
     0
370
    -2
100
AcDbLine
 10
60.0
 20
1409.754651055446
 30
0.0
 11
44.125
 21
1409.754651055446
 31
0.0
  0
LINE
  5
163
330
36
100
AcDbEntity
  8
寸法
  6
Continuous
 62
     0
370
    -2
100
AcDbLine
 10
60.0
 20
1409.754651055446
 30
0.0
 11
15.6875
 21
1409.754651055446
 31
0.0
  0
LINE
  5
164
330
36
100
AcDbEntity
  8
寸法
  6
Continuous
 62
     0
370
    -2
100
AcDbLine
 10
75.0
 20
1409.754651055446
 30
0.0
 11
60.0
 21
1409.754651055446
 31
0.0
  0
LINE
  5
165
330
36
100
AcDbEntity
  8
寸法
  6
Continuous
 62
     0
370
    20
100
AcDbLine
 10
63.77467984866347
 20
1398.52933090411
 30
0.0
 11
86.22532015133641
 21
1420.979971206783
 31
0.0
  0
LINE
  5
166
330
36
100
AcDbEntity
  8
寸法
  6
Continuous
 62
     0
370
    20
100
AcDbLine
 10
71.22532015133652
 20
1420.979971206783
 30
0.0
 11
48.77467984866347
 21
1398.52933090411
 31
0.0
  0
WIPEOUT
  5
167
330
36
100
AcDbEntity
  8
寸法
  6
Continuous
 62
     0
 92
      276
310
1401000003000000800000000A0000000000000000602F40250C3FC384469640000000000000000000000000000000000000000000000000000000000000F03F000000000000F03F000000000000000000000000000000000000000000000000000000000000F03F000000000000000041634462576970656F757420285769
310
70654F7574290000008400000006000000050000000000000000602F40250C3FC38446964000000000000000000000000000B84740250C3FC38446964000000000000000000000000000B84740250C3FC384C5964000000000000000000000000000602F40250C3FC384C5964000000000000000000000000000602F40250C
310
3FC38446964000000000000000000800000015000000
370
    -2
100
AcDbWipeout
 90
        0
 10
15.6875
 20
1786.769331278095
 30
0.0
 11
31.75
 21
0.0
 31
0.0
 12
0.0
 22
31.75
 32
0.0
 13
1.0
 23
1.0
340
0
 70
     7
280
     1
281
    50
282
    50
283
     0
360
0
 71
     2
 91
        5
 14
-0.5
 24
11.87447811724876
 14
0.5
 24
11.87447811724876
 14
0.5
 24
10.87447811724876
 14
-0.5
 24
10.87447811724876
 14
-0.5
 24
11.87447811724876
  0
MTEXT
  5
168
330
36
100
AcDbEntity
  8
寸法
 62
     0
100
AcDbMText
 10
15.6875
 20
1454.507268242947
 30
0.0
 40
24.4326171875
 41
0.0
 71
     1
 72
     1
  1
15
  7
ＭＳ ゴシック
 73
     1
 44
0.7828267384257845
1001
ACAD
1000
MTEXTBEGIN
1070
    73
1070
     1
1070
    44
1040
0.7828267384257845
1070
    74
1070
     0
1000
MTEXTEND
  0
POINT
  5
169
330
36
100
AcDbEntity
  8
Defpoints
 62
     0
370
     0
100
AcDbPoint
 10
60.0
 20
1406.004651055446
 30
0.0
  0
POINT
  5
16A
330
36
100
AcDbEntity
  8
Defpoints
 62
     0
370
     0
100
AcDbPoint
 10
75.0
 20
1406.004651055446
 30
0.0
  0
POINT
  5
16B
330
36
100
AcDbEntity
  8
Defpoints
 62
     0
370
     0
100
AcDbPoint
 10
75.0
 20
1409.754651055446
 30
0.0
  0
ENDBLK
  5
16C
330
36
100
AcDbEntity
  8
寸法
100
AcDbBlockEnd
  0
BLOCK
  5
16D
330
37
100
AcDbEntity
  8
寸法
100
AcDbBlockBegin
  2
*D21
 70
     1
 10
0.0
 20
0.0
 30
0.0
  3
*D21
  1

  0
LINE
  5
16E
330
37
100
AcDbEntity
  8
寸法
  6
Continuous
 62
     0
370
    -2
100
AcDbLine
 10
914.1249999999999
 20
1190.0
 30
0.0
 11
896.8110186216527
 21
1190.0
 31
0.0
  0
LINE
  5
16F
330
37
100
AcDbEntity
  8
寸法
  6
Continuous
 62
     0
370
    -2
100
AcDbLine
 10
914.1249999999999
 20
1175.0
 30
0.0
 11
896.8110186216527
 21
1175.0
 31
0.0
  0
LINE
  5
170
330
37
100
AcDbEntity
  8
寸法
  6
Continuous
 62
     0
370
    -2
100
AcDbLine
 10
928.5610186216526
 20
1205.875
 30
0.0
 11
928.5610186216526
 21
1190.0
 31
0.0
  0
LINE
  5
171
330
37
100
AcDbEntity
  8
寸法
  6
Continuous
 62
     0
370
    -2
100
AcDbLine
 10
928.5610186216526
 20
1175.0
 30
0.0
 11
928.5610186216526
 21
1159.125
 31
0.0
  0
LINE
  5
172
330
37
100
AcDbEntity
  8
寸法
  6
Continuous
 62
     0
370
    -2
100
AcDbLine
 10
928.5610186216526
 20
1190.0
 30
0.0
 11
928.5610186216526
 21
1237.591903285078
 31
0.0
  0
LINE
  5
173
330
37
100
AcDbEntity
  8
寸法
  6
Continuous
 62
     0
370
    -2
100
AcDbLine
 10
928.5610186216526
 20
1190.0
 30
0.0
 11
928.5610186216526
 21
1175.0
 31
0.0
  0
LINE
  5
174
330
37
100
AcDbEntity
  8
寸法
  6
Continuous
 62
     0
370
    20
100
AcDbLine
 10
939.7863387729891
 20
1178.774679848663
 30
0.0
 11
917.3356984703159
 21
1201.225320151336
 31
0.0
  0
LINE
  5
175
330
37
100
AcDbEntity
  8
寸法
  6
Continuous
 62
     0
370
    20
100
AcDbLine
 10
917.3356984703159
 20
1186.225320151336
 30
0.0
 11
939.7863387729891
 21
1163.774679848663
 31
0.0
  0
WIPEOUT
  5
176
330
37
100
AcDbEntity
  8
寸法
  6
Continuous
 62
     0
 92
      276
310
1401000003000000800000000A00000090C354F77C878B40380FE51B5ED79240000000000000000000000000000000000000000000000000000000000000F03F000000000000F03F000000000000000000000000000000000000000000000000000000000000F03F000000000000000041634462576970656F757420285769
310
70654F75742900000084000000060000000500000090C354F77C878B40380FE51B5ED79240000000000000000090C354F77C858C40380FE51B5ED79240000000000000000090C354F77C858C40380FE51B5E569340000000000000000090C354F77C878B40380FE51B5E569340000000000000000090C354F77C878B40380F
310
E51B5ED7924000000000000000000800000015000000
370
    -2
100
AcDbWipeout
 90
        0
 10
880.9360186216526
 20
1566.981583507726
 30
0.0
 11
31.75
 21
0.0
 31
0.0
 12
0.0
 22
31.75
 32
0.0
 13
1.0
 23
1.0
340
0
 70
     7
280
     1
281
    50
282
    50
283
     0
360
0
 71
     2
 91
        5
 14
0.5
 24
11.87447811724876
 14
0.5
 24
10.87447811724876
 14
-0.5
 24
10.87447811724876
 14
-0.5
 24
11.87447811724876
 14
0.5
 24
11.87447811724876
  0
MTEXT
  5
177
330
37
100
AcDbEntity
  8
寸法
 62
     0
100
AcDbMText
 10
883.8084014341527
 20
1205.841903285078
 30
0.0
 40
24.4326171875
 41
0.0
 71
     1
 72
     1
  1
15
  7
ＭＳ ゴシック
 11
0.0
 21
1.0
 31
0.0
 73
     1
 44
0.7828267384257845
1001
ACAD
1000
MTEXTBEGIN
1070
    73
1070
     1
1070
    44
1040
0.7828267384257845
1070
    74
1070
     0
1000
MTEXTEND
  0
POINT
  5
178
330
37
100
AcDbEntity
  8
Defpoints
 62
     0
370
     0
100
AcDbPoint
 10
930.0
 20
1175.0
 30
0.0
  0
POINT
  5
179
330
37
100
AcDbEntity
  8
Defpoints
 62
     0
370
     0
100
AcDbPoint
 10
930.0
 20
1190.0
 30
0.0
  0
POINT
  5
17A
330
37
100
AcDbEntity
  8
Defpoints
 62
     0
370
     0
100
AcDbPoint
 10
928.5610186216526
 20
1190.0
 30
0.0
  0
ENDBLK
  5
17B
330
37
100
AcDbEntity
  8
寸法
100
AcDbBlockEnd
  0
BLOCK
  5
17C
330
38
100
AcDbEntity
  8
寸法
100
AcDbBlockBegin
  2
*D22
 70
     1
 10
0.0
 20
0.0
 30
0.0
  3
*D22
  1

  0
LINE
  5
17D
330
38
100
AcDbEntity
  8
寸法
  6
Continuous
 62
     0
370
    -2
100
AcDbLine
 10
937.8843021108933
 20
1175.0
 30
0.0
 11
959.5285399973596
 21
1175.0
 31
0.0
  0
LINE
  5
17E
330
38
100
AcDbEntity
  8
寸法
  6
Continuous
 62
     0
370
    -2
100
AcDbLine
 10
937.8843021108933
 20
1154.0
 30
0.0
 11
959.5285399973596
 21
1154.0
 31
0.0
  0
LINE
  5
17F
330
38
100
AcDbEntity
  8
寸法
  6
Continuous
 62
     0
370
    -2
100
AcDbLine
 10
927.7785399973597
 20
1190.875
 30
0.0
 11
927.7785399973597
 21
1175.0
 31
0.0
  0
LINE
  5
180
330
38
100
AcDbEntity
  8
寸法
  6
Continuous
 62
     0
370
    -2
100
AcDbLine
 10
927.7785399973597
 20
1154.0
 30
0.0
 11
927.7785399973597
 21
1138.125
 31
0.0
  0
LINE
  5
181
330
38
100
AcDbEntity
  8
寸法
  6
Continuous
 62
     0
370
    -2
100
AcDbLine
 10
927.7785399973597
 20
1154.0
 30
0.0
 11
927.7785399973597
 21
1098.25
 31
0.0
  0
LINE
  5
182
330
38
100
AcDbEntity
  8
寸法
  6
Continuous
 62
     0
370
    -2
100
AcDbLine
 10
927.7785399973597
 20
1175.0
 30
0.0
 11
927.7785399973597
 21
1154.0
 31
0.0
  0
LINE
  5
183
330
38
100
AcDbEntity
  8
寸法
  6
Continuous
 62
     0
370
    20
100
AcDbLine
 10
939.003860148696
 20
1163.774679848663
 30
0.0
 11
916.5532198460228
 21
1186.225320151336
 31
0.0
  0
LINE
  5
184
330
38
100
AcDbEntity
  8
寸法
  6
Continuous
 62
     0
370
    20
100
AcDbLine
 10
916.5532198460228
 20
1165.225320151336
 30
0.0
 11
939.003860148696
 21
1142.774679848663
 31
0.0
  0
WIPEOUT
  5
185
330
38
100
AcDbEntity
  8
寸法
  6
Continuous
 62
     0
 92
      276
310
1401000003000000800000000A0000004B9A2D733A818B40FFFFFFFFFF289140000000000000000000000000000000000000000000000000000000000000F03F000000000000F03F000000000000000000000000000000000000000000000000000000000000F03F000000000000000041634462576970656F757420285769
310
70654F7574290000008400000006000000050000004B9A2D733A818B40FFFFFFFFFF28914000000000000000004B9A2D733A7F8C40FFFFFFFFFF28914000000000000000004B9A2D733A7F8C40FFFFFFFFFFA7914000000000000000004B9A2D733A818B40FFFFFFFFFFA7914000000000000000004B9A2D733A818B40FFFF
310
FFFFFF28914000000000000000000800000015000000
370
    -2
100
AcDbWipeout
 90
        0
 10
880.1535399973595
 20
1459.389680222648
 30
0.0
 11
31.75
 21
0.0
 31
0.0
 12
0.0
 22
31.75
 32
0.0
 13
1.0
 23
1.0
340
0
 70
     7
280
     1
281
    50
282
    50
283
     0
360
0
 71
     2
 91
        5
 14
0.5
 24
11.87447811724876
 14
0.5
 24
10.87447811724876
 14
-0.5
 24
10.87447811724876
 14
-0.5
 24
11.87447811724876
 14
0.5
 24
11.87447811724876
  0
MTEXT
  5
186
330
38
100
AcDbEntity
  8
寸法
 62
     0
100
AcDbMText
 10
883.0259228098595
 20
1098.25
 30
0.0
 40
24.4326171875
 41
0.0
 71
     1
 72
     1
  1
21
  7
ＭＳ ゴシック
 11
0.0
 21
1.0
 31
0.0
 73
     1
 44
0.7828267384257845
1001
ACAD
1000
MTEXTBEGIN
1070
    73
1070
     1
1070
    44
1040
0.7828267384257845
1070
    74
1070
     0
1000
MTEXTEND
  0
POINT
  5
187
330
38
100
AcDbEntity
  8
Defpoints
 62
     0
370
     0
100
AcDbPoint
 10
922.0093021108933
 20
1154.0
 30
0.0
  0
POINT
  5
188
330
38
100
AcDbEntity
  8
Defpoints
 62
     0
370
     0
100
AcDbPoint
 10
922.0093021108933
 20
1175.0
 30
0.0
  0
POINT
  5
189
330
38
100
AcDbEntity
  8
Defpoints
 62
     0
370
     0
100
AcDbPoint
 10
927.7785399973597
 20
1175.0
 30
0.0
  0
ENDBLK
  5
18A
330
38
100
AcDbEntity
  8
寸法
100
AcDbBlockEnd
  0
BLOCK
  5
18B
330
39
100
AcDbEntity
  8
寸法
100
AcDbBlockBegin
  2
*D23
 70
     1
 10
0.0
 20
0.0
 30
0.0
  3
*D23
  1

  0
LINE
  5
18C
330
39
100
AcDbEntity
  8
寸法
  6
Continuous
 62
     0
370
    -2
100
AcDbLine
 10
914.1249999999999
 20
754.0
 30
0.0
 11
894.25
 21
754.0
 31
0.0
  0
LINE
  5
18D
330
39
100
AcDbEntity
  8
寸法
  6
Continuous
 62
     0
370
    -2
100
AcDbLine
 10
914.1249999999999
 20
733.0
 30
0.0
 11
894.25
 21
733.0
 31
0.0
  0
LINE
  5
18E
330
39
100
AcDbEntity
  8
寸法
  6
Continuous
 62
     0
370
    -2
100
AcDbLine
 10
926.0
 20
769.875
 30
0.0
 11
926.0
 21
754.0
 31
0.0
  0
LINE
  5
18F
330
39
100
AcDbEntity
  8
寸法
  6
Continuous
 62
     0
370
    -2
100
AcDbLine
 10
926.0
 20
733.0
 30
0.0
 11
926.0
 21
717.125
 31
0.0
  0
LINE
  5
190
330
39
100
AcDbEntity
  8
寸法
  6
Continuous
 62
     0
370
    -2
100
AcDbLine
 10
926.0
 20
754.0
 30
0.0
 11
926.0
 21
800.76110699893
 31
0.0
  0
LINE
  5
191
330
39
100
AcDbEntity
  8
寸法
  6
Continuous
 62
     0
370
    -2
100
AcDbLine
 10
926.0
 20
754.0
 30
0.0
 11
926.0
 21
733.0
 31
0.0
  0
LINE
  5
192
330
39
100
AcDbEntity
  8
寸法
  6
Continuous
 62
     0
370
    20
100
AcDbLine
 10
937.2253201513364
 20
742.7746798486634
 30
0.0
 11
914.7746798486636
 21
765.2253201513364
 31
0.0
  0
LINE
  5
193
330
39
100
AcDbEntity
  8
寸法
  6
Continuous
 62
     0
370
    20
100
AcDbLine
 10
914.7746798486636
 20
744.2253201513364
 30
0.0
 11
937.2253201513364
 21
721.7746798486635
 31
0.0
  0
WIPEOUT
  5
194
330
39
100
AcDbEntity
  8
寸法
  6
Continuous
 62
     0
 92
      276
310
1401000003000000800000000A000000FFFFFFFFFF728B404C2944BF16088840000000000000000000000000000000000000000000000000000000000000F03F000000000000F03F000000000000000000000000000000000000000000000000000000000000F03F000000000000000041634462576970656F757420285769
310
70654F757429000000840000000600000005000000FFFFFFFFFF728B404C2944BF160888400000000000000000FFFFFFFFFF708C404C2944BF160888400000000000000000FFFFFFFFFF708C404C2944BF160689400000000000000000FFFFFFFFFF728B404C2944BF160689400000000000000000FFFFFFFFFF728B404C29
310
44BF1608884000000000000000000800000015000000
370
    -2
100
AcDbWipeout
 90
        0
 10
878.3749999999999
 20
1130.150787221578
 30
0.0
 11
31.75
 21
0.0
 31
0.0
 12
0.0
 22
31.75
 32
0.0
 13
1.0
 23
1.0
340
0
 70
     7
280
     1
281
    50
282
    50
283
     0
360
0
 71
     2
 91
        5
 14
0.5
 24
11.87447811724875
 14
0.5
 24
10.87447811724875
 14
-0.5
 24
10.87447811724875
 14
-0.5
 24
11.87447811724875
 14
0.5
 24
11.87447811724875
  0
MTEXT
  5
195
330
39
100
AcDbEntity
  8
寸法
 62
     0
100
AcDbMText
 10
881.2473828125
 20
769.01110699893
 30
0.0
 40
24.4326171875
 41
0.0
 71
     1
 72
     1
  1
21
  7
ＭＳ ゴシック
 11
0.0
 21
1.0
 31
0.0
 73
     1
 44
0.7828267384257845
1001
ACAD
1000
MTEXTBEGIN
1070
    73
1070
     1
1070
    44
1040
0.7828267384257845
1070
    74
1070
     0
1000
MTEXTEND
  0
POINT
  5
196
330
39
100
AcDbEntity
  8
Defpoints
 62
     0
370
     0
100
AcDbPoint
 10
930.0
 20
733.0
 30
0.0
  0
POINT
  5
197
330
39
100
AcDbEntity
  8
Defpoints
 62
     0
370
     0
100
AcDbPoint
 10
930.0
 20
754.0
 30
0.0
  0
POINT
  5
198
330
39
100
AcDbEntity
  8
Defpoints
 62
     0
370
     0
100
AcDbPoint
 10
926.0
 20
754.0
 30
0.0
  0
ENDBLK
  5
199
330
39
100
AcDbEntity
  8
寸法
100
AcDbBlockEnd
  0
BLOCK
  5
19A
330
3A
100
AcDbEntity
  8
寸法
100
AcDbBlockBegin
  2
*D24
 70
     1
 10
0.0
 20
0.0
 30
0.0
  3
*D24
  1

  0
LINE
  5
19B
330
3A
100
AcDbEntity
  8
寸法
  6
Continuous
 62
     0
370
    -2
100
AcDbLine
 10
941.8796510554463
 20
733.0
 30
0.0
 11
957.7546510554466
 21
733.0
 31
0.0
  0
LINE
  5
19C
330
3A
100
AcDbEntity
  8
寸法
  6
Continuous
 62
     0
370
    -2
100
AcDbLine
 10
941.8796510554463
 20
718.0
 30
0.0
 11
957.7546510554466
 21
718.0
 31
0.0
  0
LINE
  5
19D
330
3A
100
AcDbEntity
  8
寸法
  6
Continuous
 62
     0
370
    -2
100
AcDbLine
 10
926.0046510554463
 20
748.875
 30
0.0
 11
926.0046510554463
 21
733.0
 31
0.0
  0
LINE
  5
19E
330
3A
100
AcDbEntity
  8
寸法
  6
Continuous
 62
     0
370
    -2
100
AcDbLine
 10
926.0046510554463
 20
718.0
 30
0.0
 11
926.0046510554463
 21
702.125
 31
0.0
  0
LINE
  5
19F
330
3A
100
AcDbEntity
  8
寸法
  6
Continuous
 62
     0
370
    -2
100
AcDbLine
 10
926.0046510554463
 20
718.0
 30
0.0
 11
926.0046510554463
 21
677.875
 31
0.0
  0
LINE
  5
1A0
330
3A
100
AcDbEntity
  8
寸法
  6
Continuous
 62
     0
370
    -2
100
AcDbLine
 10
926.0046510554463
 20
733.0
 30
0.0
 11
926.0046510554463
 21
718.0
 31
0.0
  0
LINE
  5
1A1
330
3A
100
AcDbEntity
  8
寸法
  6
Continuous
 62
     0
370
    20
100
AcDbLine
 10
937.229971206783
 20
721.7746798486635
 30
0.0
 11
914.7793309041102
 21
744.2253201513364
 31
0.0
  0
LINE
  5
1A2
330
3A
100
AcDbEntity
  8
寸法
  6
Continuous
 62
     0
370
    20
100
AcDbLine
 10
914.7793309041102
 20
729.2253201513362
 30
0.0
 11
937.229971206783
 21
706.7746798486636
 31
0.0
  0
WIPEOUT
  5
1A3
330
3A
100
AcDbEntity
  8
寸法
  6
Continuous
 62
     0
 92
      276
310
1401000003000000800000000A00000047187E8609738B40FEFFFFFFFF2E8540000000000000000000000000000000000000000000000000000000000000F03F000000000000F03F000000000000000000000000000000000000000000000000000000000000F03F000000000000000041634462576970656F757420285769
310
70654F75742900000084000000060000000500000047187E8609738B40FEFFFFFFFF2E8540000000000000000047187E8609718C40FEFFFFFFFF2E8540000000000000000047187E8609718C40FEFFFFFFFF2C8640000000000000000047187E8609738B40FEFFFFFFFF2C8640000000000000000047187E8609738B40FEFF
310
FFFFFF2E854000000000000000000800000015000000
370
    -2
100
AcDbWipeout
 90
        0
 10
878.3796510554465
 20
1039.014680222648
 30
0.0
 11
31.75
 21
0.0
 31
0.0
 12
0.0
 22
31.75
 32
0.0
 13
1.0
 23
1.0
340
0
 70
     7
280
     1
281
    50
282
    50
283
     0
360
0
 71
     2
 91
        5
 14
0.5
 24
11.87447811724876
 14
0.5
 24
10.87447811724876
 14
-0.5
 24
10.87447811724876
 14
-0.5
 24
11.87447811724876
 14
0.5
 24
11.87447811724876
  0
MTEXT
  5
1A4
330
3A
100
AcDbEntity
  8
寸法
 62
     0
100
AcDbMText
 10
881.2520338679467
 20
677.875
 30
0.0
 40
24.4326171875
 41
0.0
 71
     1
 72
     1
  1
15
  7
ＭＳ ゴシック
 11
0.0
 21
1.0
 31
0.0
 73
     1
 44
0.7828267384257845
1001
ACAD
1000
MTEXTBEGIN
1070
    73
1070
     1
1070
    44
1040
0.7828267384257845
1070
    74
1070
     0
1000
MTEXTEND
  0
POINT
  5
1A5
330
3A
100
AcDbEntity
  8
Defpoints
 62
     0
370
     0
100
AcDbPoint
 10
926.0046510554463
 20
718.0
 30
0.0
  0
POINT
  5
1A6
330
3A
100
AcDbEntity
  8
Defpoints
 62
     0
370
     0
100
AcDbPoint
 10
926.0046510554463
 20
733.0
 30
0.0
  0
POINT
  5
1A7
330
3A
100
AcDbEntity
  8
Defpoints
 62
     0
370
     0
100
AcDbPoint
 10
926.0046510554463
 20
733.0
 30
0.0
  0
ENDBLK
  5
1A8
330
3A
100
AcDbEntity
  8
寸法
100
AcDbBlockEnd
  0
BLOCK
  5
1A9
330
3B
100
AcDbEntity
  8
寸法
100
AcDbBlockBegin
  2
*D25
 70
     1
 10
0.0
 20
0.0
 30
0.0
  3
*D25
  1

  0
LINE
  5
1AA
330
3B
100
AcDbEntity
  8
寸法
  6
Continuous
 62
     0
370
    -2
100
AcDbLine
 10
656.9757685507876
 20
1023.2902552014
 30
0.0
 11
710.9144858958342
 21
1119.181308259261
 31
0.0
  0
LINE
  5
1AB
330
3B
100
AcDbEntity
  8
寸法
  6
Continuous
 62
     0
370
    -2
100
AcDbLine
 10
579.0242314492124
 20
884.7097447986
 30
0.0
 11
656.9757685507876
 21
1023.2902552014
 31
0.0
  0
SOLID
  5
1AC
330
3B
100
AcDbEntity
  8
寸法
 62
     0
370
    -2
100
AcDbTrace
 10
579.0242314492124
 20
884.7097447986
 30
0.0
 11
587.5316183089007
 21
916.4597447986
 31
0.0
 12
602.2668445895241
 22
907.9523579389118
 32
0.0
 13
602.2668445895241
 23
907.9523579389118
 33
0.0
  0
SOLID
  5
1AD
330
3B
100
AcDbEntity
  8
寸法
 62
     0
370
    -2
100
AcDbTrace
 10
656.9757685507876
 20
1023.2902552014
 30
0.0
 11
648.4683816910993
 21
991.5402552013999
 31
0.0
 12
633.7331554104757
 22
1000.047642061088
 32
0.0
 13
633.7331554104757
 23
1000.047642061088
 33
0.0
  0
WIPEOUT
  5
1AE
330
3B
100
AcDbEntity
  8
寸法
  6
Continuous
 62
     0
 92
      276
310
1401000003000000800000000A000000D86A26CEE4DC8340B98C6C469C7B9040000000000000000000000000000000000000000000000000000000000000F03F000000000000F03F000000000000000000000000000000000000000000000000000000000000F03F000000000000000041634462576970656F757420285769
310
70654F757429000000840000000600000005000000D86A26CEE4DC8340B98C6C469C7B904000000000000000009B7E070097F18540B98C6C469C7B904000000000000000009B7E070097F185400682E44E99CE91400000000000000000D86A26CEE4DC83400682E44E99CE91400000000000000000D86A26CEE4DC8340B98C
310
6C469C7B904000000000000000000800000015000000
370
    -2
100
AcDbWipeout
 90
        0
 10
635.61172132505
 20
1416.042292618973
 30
0.0
 11
84.74710261759479
 21
0.0
 31
0.0
 12
0.0
 22
84.74710261759479
 32
0.0
 13
1.0
 23
1.0
340
0
 70
     7
280
     1
281
    50
282
    50
283
     0
360
0
 71
     2
 91
        5
 14
-0.1734693877551004
 24
4.761380850413518
 14
0.2857142857142871
 24
3.945054319801275
 14
-0.0408163265306111
 24
3.761380850413518
 14
-0.5
 24
4.577707381025764
 14
-0.1734693877551004
 24
4.761380850413518
  0
MTEXT
  5
1AF
330
3B
100
AcDbEntity
  8
寸法
 62
     0
100
AcDbMText
 10
638.115219917682
 20
1069.060188796304
 30
0.0
 40
24.4326171875
 41
0.0
 71
     1
 72
     1
  1
\U+03c6159
  7
ＭＳ ゴシック
 11
0.4902612396325591
 21
0.8715755371245494
 31
0.0
 73
     1
 44
0.7828267384257845
1001
ACAD
1000
MTEXTBEGIN
1070
    73
1070
     1
1070
    44
1040
0.7828267384257845
1070
    74
1070
     0
1000
MTEXTEND
  0
POINT
  5
1B0
330
3B
100
AcDbEntity
  8
Defpoints
 62
     0
370
     0
100
AcDbPoint
 10
579.0242314492124
 20
884.7097447986
 30
0.0
  0
POINT
  5
1B1
330
3B
100
AcDbEntity
  8
Defpoints
 62
     0
370
     0
100
AcDbPoint
 10
656.9757685507876
 20
1023.2902552014
 30
0.0
  0
ENDBLK
  5
1B2
330
3B
100
AcDbEntity
  8
寸法
100
AcDbBlockEnd
  0
BLOCK
  5
1B3
330
3C
100
AcDbEntity
  8
寸法
100
AcDbBlockBegin
  2
*D26
 70
     1
 10
0.0
 20
0.0
 30
0.0
  3
*D26
  1

  0
LINE
  5
1B4
330
3C
100
AcDbEntity
  8
寸法
  6
Continuous
 62
     0
370
    -2
100
AcDbLine
 10
683.8291255521063
 20
891.8970513659374
 30
0.0
 11
781.7368711679387
 21
799.5312536151524
 31
0.0
  0
LINE
  5
1B5
330
3C
100
AcDbEntity
  8
寸法
  6
Continuous
 62
     0
370
    -2
100
AcDbLine
 10
552.1708744478936
 20
1016.102948634062
 30
0.0
 11
683.8291255521063
 21
891.8970513659374
 31
0.0
  0
SOLID
  5
1B6
330
3C
100
AcDbEntity
  8
寸法
 62
     0
370
    -2
100
AcDbTrace
 10
552.1708744478936
 20
1016.102948634062
 30
0.0
 11
580.9196406014611
 21
1000.167247337041
 31
0.0
 12
569.1001856158306
 22
987.9278434069375
 32
0.0
 13
569.1001856158306
 23
987.9278434069375
 33
0.0
  0
SOLID
  5
1B7
330
3C
100
AcDbEntity
  8
寸法
 62
     0
370
    -2
100
AcDbTrace
 10
683.8291255521063
 20
891.8970513659374
 30
0.0
 11
655.0803593985389
 21
907.8327526629587
 31
0.0
 12
666.8998143841694
 22
920.0721565930622
 32
0.0
 13
666.8998143841694
 23
920.0721565930622
 33
0.0
  0
WIPEOUT
  5
1B8
330
3C
100
AcDbEntity
  8
寸法
  6
Continuous
 62
     0
 92
      276
310
1401000003000000800000000A000000445B056626F786402637A307A1588940000000000000000000000000000000000000000000000000000000000000F03F000000000000F03F000000000000000000000000000000000000000000000000000000000000F03F000000000000000041634462576970656F757420285769
310
70654F757429000000840000000600000005000000445B056626F786402637A307A15889400000000000000000130FC64E587389402637A307A15889400000000000000000130FC64E5873894060FE391123C58B400000000000000000445B056626F7864060FE391123C58B400000000000000000445B056626F786402637
310
A307A158894000000000000000000800000015000000
370
    -2
100
AcDbWipeout
 90
        0
 10
734.8937492769696
 20
1172.218308071388
 30
0.0
 11
79.52436972187761
 21
0.0
 31
0.0
 12
0.0
 22
79.52436972187761
 32
0.0
 13
1.0
 23
1.0
340
0
 70
     7
280
     1
281
    50
282
    50
283
     0
360
0
 71
     2
 91
        5
 14
-0.5
 24
4.356313918743745
 14
0.2260273972602731
 24
5.041245425593059
 14
0.4999999999999986
 24
4.750834466688949
 14
-0.2260273972602745
 24
4.065902959839633
 14
-0.5
 24
4.356313918743745
  0
MTEXT
  5
1B9
330
3C
100
AcDbEntity
  8
寸法
 62
     0
100
AcDbMText
 10
754.7101600711068
 20
886.5527696753735
 30
0.0
 40
24.4326171875
 41
0.0
 71
     1
 72
     1
  1
\U+03c6181
  7
ＭＳ ゴシック
 11
0.7273936525094622
 21
-0.6862204268957198
 31
0.0
 73
     1
 44
0.7828267384257845
1001
ACAD
1000
MTEXTBEGIN
1070
    73
1070
     1
1070
    44
1040
0.7828267384257845
1070
    74
1070
     0
1000
MTEXTEND
  0
POINT
  5
1BA
330
3C
100
AcDbEntity
  8
Defpoints
 62
     0
370
     0
100
AcDbPoint
 10
552.1708744478936
 20
1016.102948634062
 30
0.0
  0
POINT
  5
1BB
330
3C
100
AcDbEntity
  8
Defpoints
 62
     0
370
     0
100
AcDbPoint
 10
683.8291255521063
 20
891.8970513659374
 30
0.0
  0
ENDBLK
  5
1BC
330
3C
100
AcDbEntity
  8
寸法
100
AcDbBlockEnd
  0
BLOCK
  5
1BD
330
3D
100
AcDbEntity
  8
寸法
100
AcDbBlockBegin
  2
*D27
 70
     1
 10
0.0
 20
0.0
 30
0.0
  3
*D27
  1

  0
LINE
  5
1BE
330
3D
100
AcDbEntity
  8
寸法
  6
Continuous
 62
     0
370
    -2
100
AcDbLine
 10
295.2323431519878
 20
990.0462045028397
 30
0.0
 11
376.4148588670713
 21
1106.021226952959
 31
0.0
  0
LINE
  5
1BF
330
3D
100
AcDbEntity
  8
寸法
  6
Continuous
 62
     0
370
    -2
100
AcDbLine
 10
244.767656848012
 20
917.95379549716
 30
0.0
 11
295.2323431519878
 21
990.0462045028397
 31
0.0
  0
SOLID
  5
1C0
330
3D
100
AcDbEntity
  8
寸法
 62
     0
370
    -2
100
AcDbTrace
 10
244.767656848012
 20
917.95379549716
 30
0.0
 11
256.0098653644868
 21
948.8415095409751
 31
0.0
 12
269.9475520398284
 22
939.082236265696
 32
0.0
 13
269.9475520398284
 23
939.082236265696
 33
0.0
  0
SOLID
  5
1C1
330
3D
100
AcDbEntity
  8
寸法
 62
     0
370
    -2
100
AcDbTrace
 10
295.2323431519878
 20
990.0462045028397
 30
0.0
 11
283.9901346355129
 21
959.1584904590249
 31
0.0
 12
270.0524479601713
 22
968.9177637343039
 32
0.0
 13
270.0524479601713
 23
968.9177637343039
 33
0.0
  0
WIPEOUT
  5
1C2
330
3D
100
AcDbEntity
  8
寸法
  6
Continuous
 62
     0
 92
      276
310
1401000003000000800000000A000000F8E671CABECF724088D230346A9C9040000000000000000000000000000000000000000000000000000000000000F03F000000000000F03F000000000000000000000000000000000000000000000000000000000000F03F000000000000000041634462576970656F757420285769
310
70654F757429000000840000000600000005000000F8E671CABECF724088D230346A9C904000000000000000006C7588868DB6764088D230346A9C904000000000000000006C7588868DB67640982A175954B591400000000000000000F8E671CABECF7240982A175954B591400000000000000000F8E671CABECF724088D2
310
30346A9C904000000000000000000800000015000000
370
    -2
100
AcDbWipeout
 90
        0
 10
300.9840797852808
 20
1424.243394939416
 30
0.0
 11
70.22865638649472
 21
0.0
 31
0.0
 12
0.0
 22
70.22865638649472
 32
0.0
 13
1.0
 23
1.0
340
0
 70
     7
280
     1
281
    50
282
    50
283
     0
360
0
 71
     2
 91
        5
 14
-0.1296296296296295
 24
5.642340731042331
 14
0.3888888888888885
 24
4.90159999030159
 14
0.018518518518518
 24
4.64234073104233
 14
-0.5
 24
5.383081471783071
 14
-0.1296296296296295
 24
5.642340731042331
  0
MTEXT
  5
1C3
330
3D
100
AcDbEntity
  8
寸法
 62
     0
100
AcDbMText
 10
303.337227473231
 20
1079.663940768738
 30
0.0
 40
24.4326171875
 41
0.0
 71
     1
 72
     1
  1
\U+03c688
  7
ＭＳ ゴシック
 11
0.5734623443633284
 21
0.8192319205190406
 31
0.0
 73
     1
 44
0.7828267384257845
1001
ACAD
1000
MTEXTBEGIN
1070
    73
1070
     1
1070
    44
1040
0.7828267384257845
1070
    74
1070
     0
1000
MTEXTEND
  0
POINT
  5
1C4
330
3D
100
AcDbEntity
  8
Defpoints
 62
     0
370
     0
100
AcDbPoint
 10
244.767656848012
 20
917.95379549716
 30
0.0
  0
POINT
  5
1C5
330
3D
100
AcDbEntity
  8
Defpoints
 62
     0
370
     0
100
AcDbPoint
 10
295.2323431519878
 20
990.0462045028397
 30
0.0
  0
ENDBLK
  5
1C6
330
3D
100
AcDbEntity
  8
寸法
100
AcDbBlockEnd
  0
BLOCK
  5
1C7
330
3E
100
AcDbEntity
  8
寸法
100
AcDbBlockBegin
  2
*D28
 70
     1
 10
0.0
 20
0.0
 30
0.0
  3
*D28
  1

  0
LINE
  5
1C8
330
3E
100
AcDbEntity
  8
寸法
  6
Continuous
 62
     0
370
    -2
100
AcDbLine
 10
280.3753554155904
 20
896.9355452142522
 30
0.0
 11
300.1990316571237
 21
787.9053258858196
 31
0.0
  0
LINE
  5
1C9
330
3E
100
AcDbEntity
  8
寸法
  6
Continuous
 62
     0
370
    -2
100
AcDbLine
 10
259.6246445844097
 20
1011.064454785746
 30
0.0
 11
280.3753554155904
 21
896.9355452142522
 31
0.0
  0
SOLID
  5
1CA
330
3E
100
AcDbEntity
  8
寸法
 62
     0
370
    -2
100
AcDbTrace
 10
259.6246445844097
 20
1011.064454785746
 30
0.0
 11
273.5161147626298
 21
981.274100852501
 31
0.0
 12
256.7598336880397
 22
978.3195164027166
 32
0.0
 13
256.7598336880397
 23
978.3195164027166
 33
0.0
  0
SOLID
  5
1CB
330
3E
100
AcDbEntity
  8
寸法
 62
     0
370
    -2
100
AcDbTrace
 10
280.3753554155904
 20
896.9355452142522
 30
0.0
 11
266.4838852373704
 21
926.7258991474975
 31
0.0
 12
283.2401663119605
 22
929.6804835972825
 32
0.0
 13
283.2401663119605
 23
929.6804835972825
 33
0.0
  0
WIPEOUT
  5
1CC
330
3E
100
AcDbEntity
  8
寸法
  6
Continuous
 62
     0
 92
      276
310
1401000003000000800000000A0000009E9FBF4F6B7D72407C5E62AE8DAD8840000000000000000000000000000000000000000000000000000000000000F03F000000000000F03F000000000000000000000000000000000000000000000000000000000000F03F000000000000000041634462576970656F757420285769
310
70654F7574290000008400000006000000050000009E9FBF4F6B7D72407C5E62AE8DAD884000000000000000000411F8DB685475407C5E62AE8DAD884000000000000000000411F8DB685475400567A66BBF4B8B4000000000000000009E9FBF4F6B7D72400567A66BBF4B8B4000000000000000009E9FBF4F6B7D72407C5E
310
62AE8DAD884000000000000000000800000015000000
370
    -2
100
AcDbWipeout
 90
        0
 10
295.8386991009992
 20
1150.833860490467
 30
0.0
 11
83.77428677702964
 21
0.0
 31
0.0
 12
0.0
 22
83.77428677702964
 32
0.0
 13
1.0
 23
1.0
340
0
 70
     7
280
     1
281
    50
282
    50
283
     0
360
0
 71
     2
 91
        5
 14
-0.5
 24
3.878662081144413
 14
-0.3305084745762711
 24
4.810865470974921
 14
0.0423728813559321
 24
4.743068860805431
 14
-0.1271186440677967
 24
3.810865470974923
 14
-0.5
 24
3.878662081144413
  0
MTEXT
  5
1CD
330
3E
100
AcDbEntity
  8
寸法
 62
     0
100
AcDbMText
 10
324.2505177271644
 20
872.954639586757
 30
0.0
 40
24.4326171875
 41
0.0
 71
     1
 72
     1
  1
\U+03c6116
  7
ＭＳ ゴシック
 11
0.1788854381999828
 21
-0.9838699100999075
 31
0.0
 73
     1
 44
0.7828267384257845
1001
ACAD
1000
MTEXTBEGIN
1070
    73
1070
     1
1070
    44
1040
0.7828267384257845
1070
    74
1070
     0
1000
MTEXTEND
  0
POINT
  5
1CE
330
3E
100
AcDbEntity
  8
Defpoints
 62
     0
370
     0
100
AcDbPoint
 10
259.6246445844097
 20
1011.064454785746
 30
0.0
  0
POINT
  5
1CF
330
3E
100
AcDbEntity
  8
Defpoints
 62
     0
370
     0
100
AcDbPoint
 10
280.3753554155904
 20
896.9355452142522
 30
0.0
  0
ENDBLK
  5
1D0
330
3E
100
AcDbEntity
  8
寸法
100
AcDbBlockEnd
  0
ENDSEC
  0
SECTION
  2
ENTITIES
  0
DIMENSION
  5
1D1
330
A
100
AcDbEntity
  8
寸法
  6
Continuous
 62
     7
370
    13
100
AcDbDimension
  2
*D2
 10
60.0
 20
1517.38787472012
 30
0.0
 11
570.0
 21
1517.38787472012
 31
0.0
 71
     5
 42
0.0
  3
Arch
100
AcDbAlignedDimension
 13
1080.0
 23
1125.0
 33
0.0
 14
60.0
 24
1125.0
 34
0.0
100
AcDbRotatedDimension
1001
ACAD
1000
DSTYLE
1002
{
1070
   279
1070
     2
1070
   340
1005
40
1070
   147
1040
15.875
1002
}
  0
DIMENSION
  5
1D2
330
A
100
AcDbEntity
  8
寸法
  6
Continuous
 62
     7
370
    13
100
AcDbDimension
  2
*D3
 10
75.0
 20
1465.0
 30
0.0
 11
570.0
 21
1465.0
 31
0.0
 71
     5
 42
0.0
  3
Arch
100
AcDbAlignedDimension
 13
1065.0
 23
1070.0
 33
0.0
 14
75.0
 24
1070.0
 34
0.0
100
AcDbRotatedDimension
1001
ACAD
1000
DSTYLE
1002
{
1070
   279
1070
     2
1070
   340
1005
40
1070
   147
1040
15.875
1002
}
  0
DIMENSION
  5
1D3
330
A
100
AcDbEntity
  8
寸法
  6
Continuous
 62
     7
370
    13
100
AcDbDimension
  2
*D4
 10
-185.0
 20
1190.0
 30
0.0
 11
-185.0
 21
954.0
 31
0.0
 71
     5
 42
0.0
  3
Arch
100
AcDbAlignedDimension
 13
170.0
 23
718.0
 33
0.0
 14
170.0
 24
1190.0
 34
0.0
 50
90.0
100
AcDbRotatedDimension
1001
ACAD
1000
DSTYLE
1002
{
1070
   279
1070
     2
1070
   340
1005
40
1070
   147
1040
15.875
1002
}
  0
DIMENSION
  5
1D4
330
A
100
AcDbEntity
  8
寸法
  6
Continuous
 62
     7
370
    13
100
AcDbDimension
  2
*D5
 10
-130.1429012693043
 20
1175.0
 30
0.0
 11
-130.1429012693043
 21
954.0
 31
0.0
 71
     5
 42
0.0
  3
Arch
100
AcDbAlignedDimension
 13
239.8570987306957
 23
733.0
 33
0.0
 14
239.8570987306957
 24
1175.0
 34
0.0
 50
90.0
100
AcDbRotatedDimension
1001
ACAD
1000
DSTYLE
1002
{
1070
   279
1070
     2
1070
   340
1005
40
1070
   147
1040
15.875
1002
}
  0
DIMENSION
  5
1D5
330
A
100
AcDbEntity
  8
寸法
  6
Continuous
 62
     7
370
    18
100
AcDbDimension
  2
*D6
 10
60.0
 20
487.9999999999543
 30
0.0
 11
339.0
 21
487.9999999999543
 31
0.0
 71
     5
 42
0.0
  3
Arch
100
AcDbAlignedDimension
 13
618.0
 23
706.084945435796
 33
0.0
 14
60.0
 24
790.0
 34
0.0
100
AcDbRotatedDimension
1001
ACAD
1000
DSTYLE
1002
{
1070
   279
1070
     2
1070
   340
1005
40
1070
   147
1040
15.875
1002
}
  0
LINE
  5
1D6
330
A
100
AcDbEntity
  8
実形
  6
Continuous
 62
     7
370
    25
100
AcDbLine
 10
1500.0
 20
1190.0
 30
0.0
 11
1500.0
 21
718.0
 31
0.0
  0
POLYLINE
  5
1D7
330
A
100
AcDbEntity
  8
実形
  6
Continuous
 62
     7
370
    25
100
AcDb2dPolyline
 66
     1
 10
0.0
 20
0.0
 30
0.0
 70
     1
 75
     5
  0
VERTEX
  5
1D8
330
1D7
100
AcDbEntity
  8
実形
  6
Continuous
 62
     7
370
    25
100
AcDbVertex
100
AcDb2dVertex
 10
1500.0
 20
1175.0
 30
0.0
  0
VERTEX
  5
1D9
330
1D7
100
AcDbEntity
  8
実形
  6
Continuous
 62
     7
370
    25
100
AcDbVertex
100
AcDb2dVertex
 10
1515.0
 20
1175.0
 30
0.0
  0
VERTEX
  5
1DA
330
1D7
100
AcDbEntity
  8
実形
  6
Continuous
 62
     7
370
    25
100
AcDbVertex
100
AcDb2dVertex
 10
1515.0
 20
733.0
 30
0.0
  0
VERTEX
  5
1DB
330
1D7
100
AcDbEntity
  8
実形
  6
Continuous
 62
     7
370
    25
100
AcDbVertex
100
AcDb2dVertex
 10
1500.0
 20
733.0
 30
0.0
  0
SEQEND
  5
1DC
330
1D7
100
AcDbEntity
  8
実形
  6
Continuous
 62
     7
370
    25
  0
DIMENSION
  5
1DD
330
A
100
AcDbEntity
  8
寸法
  6
Continuous
 62
     7
370
    13
100
AcDbDimension
  2
*D7
 10
1500.0
 20
592.25
 30
0.0
 11
1474.0
 21
608.1249999999998
 31
0.0
 70
   128
 71
     5
 42
0.0
  3
Arch
100
AcDbAlignedDimension
 13
1515.0
 23
720.2339924303537
 33
0.0
 14
1500.0
 24
720.2339924303537
 34
0.0
100
AcDbRotatedDimension
1001
ACAD
1000
DSTYLE
1002
{
1070
   279
1070
     2
1070
   340
1005
40
1070
   174
1070
     0
1070
   147
1040
15.875
1002
}
  0
POLYLINE
  5
1DE
330
A
100
AcDbEntity
  8
実形
  6
Continuous
 62
     7
370
    25
100
AcDb2dPolyline
 66
     1
 10
0.0
 20
0.0
 30
0.0
 70
     1
 75
     5
  0
VERTEX
  5
1DF
330
1DE
100
AcDbEntity
  8
実形
  6
Continuous
 62
     7
370
    25
100
AcDbVertex
100
AcDb2dVertex
 10
1704.928329971653
 20
1034.0
 30
0.0
  0
VERTEX
  5
1E0
330
1DE
100
AcDbEntity
  8
実形
  6
Continuous
 62
     7
370
    25
100
AcDbVertex
100
AcDb2dVertex
 10
1711.928329971652
 20
1034.0
 30
0.0
  0
VERTEX
  5
1E1
330
1DE
100
AcDbEntity
  8
実形
  6
Continuous
 62
     7
370
    25
100
AcDbVertex
100
AcDb2dVertex
 10
1711.928329971652
 20
874.0
 30
0.0
  0
VERTEX
  5
1E2
330
1DE
100
AcDbEntity
  8
実形
  6
Continuous
 62
     7
370
    25
100
AcDbVertex
100
AcDb2dVertex
 10
1704.928329971653
 20
874.0
 30
0.0
  0
SEQEND
  5
1E3
330
1DE
100
AcDbEntity
  8
実形
  6
Continuous
 62
     7
370
    25
  0
LINE
  5
1E4
330
A
100
AcDbEntity
  8
実形
  6
Continuous
 62
     7
370
    25
100
AcDbLine
 10
1691.259313529254
 20
760.181981661851
 30
0.0
 11
1606.763992952071
 21
812.0305195940105
 31
0.0
  0
SOLID
  5
1E5
330
A
100
AcDbEntity
  8
実形
 62
     7
370
    25
100
AcDbTrace
 10
1691.259313529254
 20
760.181981661851
 30
0.0
 11
1659.825558291055
 21
769.7922450716305
 31
0.0
 12
1668.842014661521
 22
784.2215915308801
 32
0.0
 13
1668.842014661521
 23
784.2215915308801
 33
0.0
  0
MTEXT
  5
1E6
330
A
100
AcDbEntity
  8
実形
 62
     7
100
AcDbMText
 10
1565.519865420139
 20
857.9618903645306
 30
0.0
 40
24.4326171875
 41
0.0
 71
     1
 72
     1
  1
R30
  7
ＭＳ ゴシック
 11
0.8660254037844371
 21
-0.5000000000000028
 31
0.0
 73
     1
 44
0.7828267384257845
1001
ACAD
1000
MTEXTBEGIN
1070
    73
1070
     1
1070
    44
1040
0.7828267384257845
1070
    74
1070
     0
1000
MTEXTEND
  0
DIMENSION
  5
1E7
330
A
100
AcDbEntity
  8
寸法
  6
Continuous
 62
     7
370
    13
100
AcDbDimension
  2
*D8
 10
1500.0
 20
1267.257417636164
 30
0.0
 11
1606.814082374317
 21
1283.132417636164
 31
0.0
 70
   128
 71
     5
 42
0.0
  3
Arch
100
AcDbAlignedDimension
 13
1705.0
 23
1114.0
 33
0.0
 14
1500.0
 24
1114.0
 34
0.0
100
AcDbRotatedDimension
1001
ACAD
1000
DSTYLE
1002
{
1070
   279
1070
     2
1070
   340
1005
40
1070
   147
1040
15.875
1002
}
  0
DIMENSION
  5
1E8
330
A
100
AcDbEntity
  8
寸法
  6
Continuous
 62
     7
370
    13
100
AcDbDimension
  2
*D9
 10
1704.928329971653
 20
989.25
 30
0.0
 11
1755.928329971652
 21
1005.125
 31
0.0
 70
   128
 71
     5
 42
0.0
  3
Arch
100
AcDbAlignedDimension
 13
1711.928329971652
 23
1034.75
 33
0.0
 14
1704.928329971653
 24
1034.75
 34
0.0
100
AcDbRotatedDimension
1001
ACAD
1000
DSTYLE
1002
{
1070
   279
1070
     2
1070
   340
1005
40
1070
   174
1070
     0
1070
   147
1040
15.875
1002
}
  0
DIMENSION
  5
1E9
330
A
100
AcDbEntity
  8
寸法
  6
Continuous
 62
     7
370
    25
100
AcDbDimension
  2
*D10
 10
1705.0
 20
593.75
 30
0.0
 11
1713.375
 21
609.625
 31
0.0
 70
   128
 71
     5
 42
0.0
  3
Arch
100
AcDbAlignedDimension
 13
1699.0
 23
753.0
 33
0.0
 14
1705.0
 24
753.0
 34
0.0
100
AcDbRotatedDimension
1001
ACAD
1000
DSTYLE
1002
{
1070
   279
1070
     2
1070
   340
1005
40
1070
   174
1070
     0
1070
   147
1040
15.875
1002
}
  0
DIMENSION
  5
1EA
330
A
100
AcDbEntity
  8
寸法
  6
Continuous
 62
     7
370
    13
100
AcDbDimension
  2
*D11
 10
-74.95257216698519
 20
1154.0
 30
0.0
 11
-74.95257216698519
 21
954.0
 31
0.0
 71
     5
 42
0.0
  3
Arch
100
AcDbAlignedDimension
 13
81.0474278330148
 23
754.0
 33
0.0
 14
81.0474278330148
 24
1154.0
 34
0.0
 50
90.0
100
AcDbRotatedDimension
1001
ACAD
1000
DSTYLE
1002
{
1070
   279
1070
     2
1070
   340
1005
40
1070
   147
1040
15.875
1002
}
  0
DIMENSION
  5
1EB
330
A
100
AcDbEntity
  8
寸法
  6
Continuous
 62
     7
370
    18
100
AcDbDimension
  2
*D12
 10
60.0
 20
551.1722829376614
 30
0.0
 11
165.0
 21
551.1722829376614
 31
0.0
 71
     5
 42
0.0
  3
Arch
100
AcDbAlignedDimension
 13
270.0
 23
706.084945435796
 33
0.0
 14
60.0
 24
790.0
 34
0.0
100
AcDbRotatedDimension
1001
ACAD
1000
DSTYLE
1002
{
1070
   279
1070
     2
1070
   340
1005
40
1070
   147
1040
15.875
1002
}
  0
CIRCLE
  5
1EC
330
A
100
AcDbEntity
  8
実形
  6
Continuous
 62
     7
370
    13
100
AcDbCircle
 10
270.0
 20
954.0
 30
0.0
 40
57.99999999999997
  0
CIRCLE
  5
1ED
330
A
100
AcDbEntity
  8
実形
  6
Continuous
 62
     7
370
    13
100
AcDbCircle
 10
270.0
 20
954.0
 30
0.0
 40
44.0
  0
LWPOLYLINE
  5
1EE
330
A
100
AcDbEntity
  8
実形
  6
Continuous
 62
     7
370
    13
100
AcDbPolyline
 90
        8
 70
   129
 43
0.0
 10
60.0
 20
1105.0
 42
-0.4142135623730951
 10
145.0
 20
1190.0
 10
995.0
 20
1190.0
 42
-0.4142135623730951
 10
1080.0
 20
1105.0
 10
1080.0
 20
803.0
 42
-0.4142135623730951
 10
995.0
 20
718.0
 10
145.0
 20
718.0
 42
-0.4142135623730951
 10
60.0
 20
803.0
  0
LWPOLYLINE
  5
1EF
330
A
100
AcDbEntity
  8
実形
  6
Continuous
 62
     7
370
    13
100
AcDbPolyline
 90
        8
 70
   129
 43
0.0
 10
75.0
 20
1105.0
 42
-0.4142135623730951
 10
145.0
 20
1175.0
 10
995.0
 20
1175.0
 42
-0.4142135623730951
 10
1065.0
 20
1105.0
 10
1065.0
 20
803.0
 42
-0.4142135623730951
 10
995.0
 20
733.0
 10
145.0
 20
733.0
 42
-0.4142135623730951
 10
75.0
 20
803.0
  0
DIMENSION
  5
1F0
330
A
100
AcDbEntity
  8
寸法
  6
Continuous
 62
     7
370
    13
100
AcDbDimension
  2
*D13
 10
830.0
 20
1190.0
 30
0.0
 11
830.0
 21
1072.0
 31
0.0
 71
     5
 42
0.0
  3
Arch
100
AcDbAlignedDimension
 13
748.0
 23
954.0
 33
0.0
 14
748.0
 24
1190.0
 34
0.0
 50
90.0
100
AcDbRotatedDimension
1001
ACAD
1000
DSTYLE
1002
{
1070
   279
1070
     2
1070
   340
1005
40
1070
   147
1040
15.875
1002
}
  0
LWPOLYLINE
  5
1F1
330
A
100
AcDbEntity
  8
実形
  6
Continuous
 62
     7
370
    25
100
AcDbPolyline
 90
        9
 70
   129
 43
0.0
 10
1515.0
 20
1154.0
 10
1674.928329971653
 20
1154.0
 42
-0.4142135623730951
 10
1704.928329971653
 20
1124.0
 10
1704.928329971653
 20
1034.0
 10
1704.928329971653
 20
954.0
 10
1704.928329971653
 20
874.0
 10
1695.943926424176
 20
781.1117957282093
 42
-0.3862458105394545
 10
1666.083278807549
 20
754.0
 10
1515.0
 20
754.0
  0
DIMENSION
  5
1F2
330
A
100
AcDbEntity
  8
寸法
  6
Continuous
 62
     7
370
    13
100
AcDbDimension
  2
*D14
 10
75.0
 20
1410.0
 30
0.0
 11
95.0
 21
1410.0
 31
0.0
 71
     5
 42
0.0
  3
Arch
100
AcDbAlignedDimension
 13
115.0
 23
1236.0
 33
0.0
 14
75.0
 24
1236.0
 34
0.0
100
AcDbRotatedDimension
1001
ACAD
1000
DSTYLE
1002
{
1070
   279
1070
     2
1070
   340
1005
40
1070
   147
1040
15.875
1002
}
  0
DIMENSION
  5
1F3
330
A
100
AcDbEntity
  8
寸法
  6
Continuous
 62
     7
370
    13
100
AcDbDimension
  2
*D15
 10
115.0
 20
1410.0
 30
0.0
 11
293.7344398821895
 21
1410.0
 31
0.0
 71
     5
 42
0.0
  3
Arch
100
AcDbAlignedDimension
 13
425.0
 23
1232.0
 33
0.0
 14
115.0
 24
1410.0
 34
0.0
100
AcDbRotatedDimension
1001
ACAD
1000
DSTYLE
1002
{
1070
   279
1070
     2
1070
   340
1005
40
1070
   147
1040
15.875
1002
}
  0
DIMENSION
  5
1F4
330
A
100
AcDbEntity
  8
寸法
  6
Continuous
 62
     7
370
    13
100
AcDbDimension
  2
*D16
 10
425.0
 20
1410.0
 30
0.0
 11
450.0
 21
1410.0
 31
0.0
 71
     5
 42
0.0
  3
Arch
100
AcDbAlignedDimension
 13
475.0
 23
1264.0
 33
0.0
 14
425.0
 24
1247.875
 34
0.0
100
AcDbRotatedDimension
1001
ACAD
1000
DSTYLE
1002
{
1070
   279
1070
     2
1070
   340
1005
40
1070
   147
1040
15.875
1002
}
  0
DIMENSION
  5
1F5
330
A
100
AcDbEntity
  8
寸法
  6
Continuous
 62
     7
370
    13
100
AcDbDimension
  2
*D17
 10
475.0
 20
1410.0
 30
0.0
 11
750.0
 21
1410.0
 31
0.0
 71
     5
 42
0.0
  3
Arch
100
AcDbAlignedDimension
 13
1025.0
 23
1244.0
 33
0.0
 14
475.0
 24
1244.0
 34
0.0
100
AcDbRotatedDimension
1001
ACAD
1000
DSTYLE
1002
{
1070
   279
1070
     2
1070
   340
1005
40
1070
   147
1040
15.875
1002
}
  0
DIMENSION
  5
1F6
330
A
100
AcDbEntity
  8
寸法
  6
Continuous
 62
     7
370
    13
100
AcDbDimension
  2
*D18
 10
1025.0
 20
1410.0
 30
0.0
 11
1045.0
 21
1410.0
 31
0.0
 71
     5
 42
0.0
  3
Arch
100
AcDbAlignedDimension
 13
1065.0
 23
1244.0
 33
0.0
 14
1025.0
 24
1244.0
 34
0.0
100
AcDbRotatedDimension
1001
ACAD
1000
DSTYLE
1002
{
1070
   279
1070
     2
1070
   340
1005
40
1070
   147
1040
15.875
1002
}
  0
LWPOLYLINE
  5
1F7
330
A
100
AcDbEntity
  8
実形
  6
Continuous
 62
     7
370
    13
100
AcDbPolyline
 90
        8
 70
   129
 43
0.0
 10
115.0
 20
1074.0
 42
-0.4142135623730951
 10
195.0
 20
1154.0
 10
345.0
 20
1154.0
 42
-0.4142135623730949
 10
425.0
 20
1074.0
 10
425.0
 20
834.0
 42
-0.4142135623730951
 10
345.0
 20
754.0
 10
195.0
 20
754.0
 42
-0.4142135623730951
 10
115.0
 20
834.0
  0
LWPOLYLINE
  5
1F8
330
A
100
AcDbEntity
  8
実形
  6
Continuous
 62
     7
370
    13
100
AcDbPolyline
 90
        8
 70
   129
 43
0.0
 10
475.0
 20
1074.0
 42
-0.4142135623730951
 10
555.0
 20
1154.0
 10
945.0
 20
1154.0
 42
-0.4142135623730951
 10
1025.0
 20
1074.0
 10
1025.0
 20
834.0
 42
-0.4142135623730951
 10
945.0
 20
754.0
 10
555.0
 20
754.0
 42
-0.4142135623730951
 10
475.0
 20
834.0
  0
POLYLINE
  5
1F9
330
A
100
AcDbEntity
  8
実形
  6
STYLE_02
 62
     7
370
    13
100
AcDb2dPolyline
 66
     1
 10
0.0
 20
0.0
 30
0.0
 70
     1
 75
     5
  0
VERTEX
  5
1FA
330
1F9
100
AcDbEntity
  8
実形
  6
STYLE_02
 62
     7
370
    13
100
AcDbVertex
100
AcDb2dVertex
 10
240.0046510554466
 20
1164.0
 30
0.0
  0
VERTEX
  5
1FB
330
1F9
100
AcDbEntity
  8
実形
  6
STYLE_02
 62
     7
370
    13
100
AcDbVertex
100
AcDb2dVertex
 10
300.0046510554466
 20
1164.0
 30
0.0
  0
VERTEX
  5
1FC
330
1F9
100
AcDbEntity
  8
実形
  6
STYLE_02
 62
     7
370
    13
100
AcDbVertex
100
AcDb2dVertex
 10
300.0046510554466
 20
1154.0
 30
0.0
  0
VERTEX
  5
1FD
330
1F9
100
AcDbEntity
  8
実形
  6
STYLE_02
 62
     7
370
    13
100
AcDbVertex
100
AcDb2dVertex
 10
240.0046510554466
 20
1154.0
 30
0.0
  0
SEQEND
  5
1FE
330
1F9
100
AcDbEntity
  8
実形
  6
STYLE_02
 62
     7
370
    13
  0
DIMENSION
  5
1FF
330
A
100
AcDbEntity
  8
寸法
  6
Continuous
 62
     7
370
    13
100
AcDbDimension
  2
*D19
 10
1065.0
 20
1409.807848944553
 30
0.0
 11
1092.5625
 21
1425.682848944554
 31
0.0
 70
   128
 71
     5
 42
0.0
  3
Arch
100
AcDbAlignedDimension
 13
1080.0
 23
1413.995348944554
 33
0.0
 14
1065.0
 24
1413.995348944554
 34
0.0
100
AcDbRotatedDimension
1001
ACAD
1000
DSTYLE
1002
{
1070
   279
1070
     2
1070
   340
1005
40
1070
   174
1070
     0
1070
   147
1040
15.875
1002
}
  0
DIMENSION
  5
200
330
A
100
AcDbEntity
  8
寸法
  6
Continuous
 62
     7
370
    13
100
AcDbDimension
  2
*D20
 10
75.0
 20
1409.754651055446
 30
0.0
 11
47.4375
 21
1425.629651055446
 31
0.0
 70
   128
 71
     5
 42
0.0
  3
Arch
100
AcDbAlignedDimension
 13
60.0
 23
1406.004651055446
 33
0.0
 14
75.0
 24
1406.004651055446
 34
0.0
100
AcDbRotatedDimension
1001
ACAD
1000
DSTYLE
1002
{
1070
   279
1070
     2
1070
   340
1005
40
1070
   174
1070
     0
1070
   147
1040
15.875
1002
}
  0
DIMENSION
  5
201
330
A
100
AcDbEntity
  8
寸法
  6
Continuous
 62
     7
370
    13
100
AcDbDimension
  2
*D21
 10
928.5610186216526
 20
1190.0
 30
0.0
 11
912.6860186216527
 21
1205.841903285078
 31
0.0
 70
   128
 71
     5
 42
0.0
  3
Arch
100
AcDbAlignedDimension
 13
930.0
 23
1175.0
 33
0.0
 14
930.0
 24
1190.0
 34
0.0
 50
90.0
100
AcDbRotatedDimension
1001
ACAD
1000
DSTYLE
1002
{
1070
   279
1070
     2
1070
   340
1005
40
1070
   174
1070
     0
1070
   147
1040
15.875
1002
}
  0
DIMENSION
  5
202
330
A
100
AcDbEntity
  8
寸法
  6
Continuous
 62
     7
370
    13
100
AcDbDimension
  2
*D22
 10
927.7785399973597
 20
1175.0
 30
0.0
 11
943.6535399973596
 21
1130.0
 31
0.0
 70
   128
 71
     5
 42
0.0
  3
Arch
100
AcDbAlignedDimension
 13
922.0093021108933
 23
1154.0
 33
0.0
 14
922.0093021108933
 24
1175.0
 34
0.0
 50
90.0
100
AcDbRotatedDimension
1001
ACAD
1000
DSTYLE
1002
{
1070
   279
1070
     2
1070
   340
1005
40
1070
   174
1070
     0
1070
   147
1040
15.875
1002
}
  0
DIMENSION
  5
203
330
A
100
AcDbEntity
  8
寸法
  6
Continuous
 62
     7
370
    13
100
AcDbDimension
  2
*D23
 10
926.0
 20
754.0
 30
0.0
 11
910.125
 21
769.01110699893
 31
0.0
 70
   128
 71
     5
 42
0.0
  3
Arch
100
AcDbAlignedDimension
 13
930.0
 23
733.0
 33
0.0
 14
930.0
 24
754.0
 34
0.0
 50
90.0
100
AcDbRotatedDimension
1001
ACAD
1000
DSTYLE
1002
{
1070
   279
1070
     2
1070
   340
1005
40
1070
   174
1070
     0
1070
   147
1040
15.875
1002
}
  0
DIMENSION
  5
204
330
A
100
AcDbEntity
  8
寸法
  6
Continuous
 62
     7
370
    13
100
AcDbDimension
  2
*D24
 10
926.0046510554463
 20
733.0
 30
0.0
 11
926.0046510554463
 21
709.625
 31
0.0
 70
   128
 71
     5
 42
0.0
  3
Arch
100
AcDbAlignedDimension
 13
926.0046510554463
 23
718.0
 33
0.0
 14
926.0046510554463
 24
733.0
 34
0.0
 50
90.0
100
AcDbRotatedDimension
1001
ACAD
1000
DSTYLE
1002
{
1070
   279
1070
     2
1070
   340
1005
40
1070
   174
1070
     0
1070
   147
1040
15.875
1002
}
  0
POLYLINE
  5
205
330
A
100
AcDbEntity
  8
実形
  6
Continuous
 62
     7
370
    13
100
AcDb2dPolyline
 66
     1
 10
0.0
 20
0.0
 30
0.0
 70
     1
 75
     5
  0
VERTEX
  5
206
330
205
100
AcDbEntity
  8
実形
  6
Continuous
 62
     7
370
    13
100
AcDbVertex
100
AcDb2dVertex
 10
1515.0
 20
1161.0
 30
0.0
  0
VERTEX
  5
207
330
205
100
AcDbEntity
  8
実形
  6
Continuous
 62
     7
370
    13
100
AcDbVertex
100
AcDb2dVertex
 10
1545.0
 20
1161.0
 30
0.0
  0
VERTEX
  5
208
330
205
100
AcDbEntity
  8
実形
  6
Continuous
 62
     7
370
    13
100
AcDbVertex
100
AcDb2dVertex
 10
1545.0
 20
1154.0
 30
0.0
  0
VERTEX
  5
209
330
205
100
AcDbEntity
  8
実形
  6
Continuous
 62
     7
370
    13
100
AcDbVertex
100
AcDb2dVertex
 10
1515.0
 20
1154.0
 30
0.0
  0
SEQEND
  5
20A
330
205
100
AcDbEntity
  8
実形
  6
Continuous
 62
     7
370
    13
  0
LINE
  5
20B
330
A
100
AcDbEntity
  8
実形
  6
Continuous
 62
     7
370
    13
100
AcDbLine
 10
1545.0
 20
1161.0
 30
0.0
 11
1775.0
 21
1270.0
 31
0.0
  0
SOLID
  5
20C
330
A
100
AcDbEntity
  8
実形
 62
     7
370
    13
100
AcDbTrace
 10
1545.0
 20
1161.0
 30
0.0
 11
1570.179895191816
 21
1182.128440768535
 31
0.0
 12
1577.37064928501
 22
1166.707818851998
 32
0.0
 13
1577.37064928501
 23
1166.707818851998
 33
0.0
  0
LINE
  5
20D
330
A
100
AcDbEntity
  8
実形
  6
Continuous
 62
     7
370
    13
100
AcDbLine
 10
1775.0
 20
1270.0
 30
0.0
 11
2050.0
 21
1270.0
 31
0.0
  0
MTEXT
  5
20E
330
A
100
AcDbEntity
  8
実形
 62
     7
100
AcDbMText
 10
1785.302982386005
 20
1304.1276171875
 30
0.0
 40
24.4326171875
 41
0.0
 71
     1
 72
     1
  1
\U+30aa\U+30fc\U+30d0\U+30fc\U+30d5\U+30ed\U+30fc\U+7a74
  7
ＭＳ ゴシック
 73
     1
 44
0.7828267384257845
1001
ACAD
1000
MTEXTBEGIN
1070
    73
1070
     1
1070
    44
1040
0.7828267384257845
1070
    74
1070
     0
1000
MTEXTEND
  0
CIRCLE
  5
20F
330
A
100
AcDbEntity
  8
実形
  6
Continuous
 62
     7
370
    18
100
AcDbCircle
 10
618.0
 20
954.0
 30
0.0
 40
90.49999999999998
  0
CIRCLE
  5
210
330
A
100
AcDbEntity
  8
実形
  6
Continuous
 62
     7
370
    18
100
AcDbCircle
 10
618.0
 20
954.0
 30
0.0
 40
79.49999999999997
  0
DIMENSION
  5
211
330
A
100
AcDbEntity
  8
寸法
  6
Continuous
 62
     7
370
    25
100
AcDbDimension
  2
*D25
 10
579.0242314492124
 20
884.7097447986
 30
0.0
 11
735.5
 21
1050.0
 31
0.0
 70
     3
 71
     5
 42
0.0
  3
Arch
100
AcDbDiametricDimension
 15
656.9757685507876
 25
1023.2902552014
 35
0.0
 40
30.64535850411659
1001
ACAD
1000
DSTYLE
1002
{
1070
   289
1070
     0
1070
   342
1005
59
1070
   340
1005
40
1070
     3
1000
φ<>
1070
   174
1070
     0
1070
   147
1040
10.0
1002
}
  0
DIMENSION
  5
212
330
A
100
AcDbEntity
  8
寸法
  6
Continuous
 62
     7
370
    25
100
AcDbDimension
  2
*D26
 10
552.1708744478936
 20
1016.102948634062
 30
0.0
 11
787.5
 21
854.0
 31
0.0
 70
     3
 71
     5
 42
0.0
  3
Arch
100
AcDbDiametricDimension
 15
683.8291255521063
 25
891.8970513659374
 35
0.0
 40
55.22576985557485
1001
ACAD
1000
DSTYLE
1002
{
1070
   289
1070
     0
1070
   342
1005
59
1070
   340
1005
40
1070
    75
1070
     1
1070
    76
1070
     1
1070
     3
1000
φ<>
1070
   174
1070
     0
1070
   147
1040
15.875
1002
}
  0
DIMENSION
  5
213
330
A
100
AcDbEntity
  8
寸法
  6
Continuous
 62
     7
370
    13
100
AcDbDimension
  2
*D27
 10
244.767656848012
 20
917.95379549716
 30
0.0
 11
403.5000000000001
 21
1054.0
 31
0.0
 70
     3
 71
     5
 42
0.0
  3
Arch
100
AcDbDiametricDimension
 15
295.2323431519878
 25
990.0462045028397
 35
0.0
 40
78.06555615733465
1001
ACAD
1000
DSTYLE
1002
{
1070
   289
1070
     0
1070
   342
1005
59
1070
   340
1005
40
1070
    75
1070
     1
1070
    76
1070
     1
1070
     3
1000
φ<>
1070
   174
1070
     0
1070
   147
1040
15.875
1002
}
  0
DIMENSION
  5
214
330
A
100
AcDbEntity
  8
寸法
  6
Continuous
 62
     7
370
    13
100
AcDbDimension
  2
*D28
 10
259.6246445844097
 20
1011.064454785746
 30
0.0
 11
349.5
 21
866.0
 31
0.0
 70
     3
 71
     5
 42
0.0
  3
Arch
100
AcDbDiametricDimension
 15
280.3753554155904
 25
896.9355452142522
 35
0.0
 40
31.44271910003956
1001
ACAD
1000
DSTYLE
1002
{
1070
   289
1070
     0
1070
   342
1005
59
1070
   340
1005
40
1070
    75
1070
     1
1070
    76
1070
     1
1070
     3
1000
φ<>
1070
   174
1070
     0
1070
   147
1040
10.0
1002
}
  0
LINE
  5
215
330
A
100
AcDbEntity
  8
一般
100
AcDbLine
 10
-280.5271077837249
 20
-210.2699857798924
 30
0.0
 11
2499.472892216275
 21
-210.2699857798924
 31
0.0
  0
LINE
  5
216
330
A
100
AcDbEntity
  8
一般
100
AcDbLine
 10
-280.5271077837249
 20
1709.730014220108
 30
0.0
 11
-280.5271077837249
 21
-210.2699857798924
 31
0.0
  0
LINE
  5
217
330
A
100
AcDbEntity
  8
一般
100
AcDbLine
 10
2499.472892216275
 20
1709.730014220108
 30
0.0
 11
-280.5271077837249
 21
1709.730014220108
 31
0.0
  0
LINE
  5
218
330
A
100
AcDbEntity
  8
一般
100
AcDbLine
 10
2499.472892216275
 20
-210.2699857798924
 30
0.0
 11
2499.472892216275
 21
1709.730014220108
 31
0.0
  0
LINE
  5
219
330
A
100
AcDbEntity
  8
一般
 62
     0
100
AcDbLine
 10
1899.472892216275
 20
-145.2699857798924
 30
0.0
 11
1899.472892216275
 21
-15.26998577989241
 31
0.0
  0
LINE
  5
21A
330
A
100
AcDbEntity
  8
一般
 62
     0
100
AcDbLine
 10
1899.472892216275
 20
-145.2699857798924
 30
0.0
 11
2499.472892216275
 21
-145.2699857798924
 31
0.0
  0
LINE
  5
21B
330
A
100
AcDbEntity
  8
一般
 62
     0
100
AcDbLine
 10
1779.472892216275
 20
-80.26998577989242
 30
0.0
 11
2499.472892216275
 21
-80.26998577989242
 31
0.0
  0
LINE
  5
21C
330
A
100
AcDbEntity
  8
一般
 62
     0
100
AcDbLine
 10
1779.472892216275
 20
-15.26998577989241
 30
0.0
 11
2499.472892216275
 21
-15.26998577989241
 31
0.0
  0
LINE
  5
21D
330
A
100
AcDbEntity
  8
一般
 62
     0
100
AcDbLine
 10
2499.472892216275
 20
-210.2699857798924
 30
0.0
 11
2499.472892216275
 21
-145.2699857798924
 31
0.0
  0
LINE
  5
21E
330
A
100
AcDbEntity
  8
一般
 62
     0
100
AcDbLine
 10
2499.472892216275
 20
-80.26998577989242
 30
0.0
 11
2499.472892216275
 21
-15.26998577989241
 31
0.0
  0
LINE
  5
21F
330
A
100
AcDbEntity
  8
一般
 62
     0
100
AcDbLine
 10
1779.472892216275
 20
-145.2699857798924
 30
0.0
 11
2499.472892216275
 21
-145.2699857798924
 31
0.0
  0
LINE
  5
220
330
A
100
AcDbEntity
  8
一般
 62
     0
100
AcDbLine
 10
1779.472892216275
 20
-210.2699857798924
 30
0.0
 11
1779.472892216275
 21
-15.26998577989241
 31
0.0
  0
MTEXT
  5
221
330
A
100
AcDbEntity
  8
一般
 62
     0
100
AcDbMText
 10
2190.354211407996
 20
-99.3847065920753
 30
0.0
 40
35.0
 41
0.0
 71
     2
 72
     1
  1
1\U+ff1a10
  7
ＭＳ ゴシック
 73
     1
 44
0.7859706209094222
1001
ACAD
1000
MTEXTBEGIN
1070
    73
1070
     1
1070
    44
1040
0.7859706209094222
1070
    74
1070
     0
1000
MTEXTEND
  0
MTEXT
  5
222
330
A
100
AcDbEntity
  8
一般
 62
     0
100
AcDbMText
 10
1909.272850266415
 20
-159.7025070122165
 30
0.0
 40
35.36964699074076
 41
0.0
 71
     1
 72
     1
  1
{\fRomantic|b0|i0|c2|p2;E:kitchen \fArial|b0|i0|c0|p0;\H0.375x;U-ARCHI}
  7
Arial
 73
     1
 44
0.9673603504928808
1001
ACAD
1000
MTEXTBEGIN
1070
    73
1070
     1
1070
    44
1040
0.9673603504928808
1070
    74
1070
     0
1000
MTEXTEND
  0
MTEXT
  5
223
330
A
100
AcDbEntity
  8
一般
 62
     0
100
AcDbMText
 10
1792.472892216275
 20
-29.41898317572577
 30
0.0
 40
35.29155815972223
 41
0.0
 71
     1
 72
     1
  1
\U+54c1\U+756a
  7
ＭＳ ゴシック
 73
     1
 44
0.7828267384257841
1001
ACAD
1000
MTEXTBEGIN
1070
    73
1070
     1
1070
    44
1040
0.7828267384257841
1070
    74
1070
     0
1000
MTEXTEND
  0
MTEXT
  5
224
330
A
100
AcDbEntity
  8
一般
 62
     0
100
AcDbMText
 10
1795.043670399274
 20
-97.22106650905914
 30
0.0
 40
35.29155815972223
 41
0.0
 71
     1
 72
     1
  1
\U+5c3a\U+5ea6
  7
ＭＳ ゴシック
 73
     1
 44
0.7828267384257841
1001
ACAD
1000
MTEXTBEGIN
1070
    73
1070
     1
1070
    44
1040
0.7828267384257841
1070
    74
1070
     0
1000
MTEXTEND
  0
MTEXT
  5
225
330
A
100
AcDbEntity
  8
一般
 62
     0
100
AcDbMText
 10
2186.417336660721
 20
-50.51998577989333
 30
0.0
 40
30.31684027777777
 41
0.0
 71
     5
 72
     1
  1
SSW-102
  7
Arial
 73
     1
 44
0.9673603504928806
1001
ACAD
1000
MTEXTBEGIN
1070
    73
1070
     1
1070
    44
1040
0.9673603504928806
1070
    74
1070
     0
1000
MTEXTEND
  0
MTEXT
  5
226
330
A
100
AcDbEntity
  8
0
100
AcDbMText
 10
-190.5271077837248
 20
-143.4615222382258
 30
0.0
 40
27.14735243055556
 41
0.0
 71
     1
 72
     1
  3
{\C7;\l\U+203B\U+5b9f\U+5bf8\U+306b\U+306f\U+88fd\U+9020\U+4e0a\U+306e\U+8aa4\U+5dee\U+304c\U+591a\U+5c11\U+751f\U+305a\U+308b\U+5834\U+5408\U+304c\U+3042\U+308a\U+307e\U+3059\U+3002\U+30b7\U+30f3\U+30af\U+306e\U+7a74\U+3042\U+3051\U+52a0\U+5de5\U+30
  1
6f\U+73fe\U+7269\U+5408\U+308f\U+305b\U+306b\U+3066\U+304a\U+9858\U+3044\U+3057\U+307e\U+3059\U+3002}
  7
ＭＳ ゴシック
 73
     1
 44
0.8755509216369572
1001
ACAD
1000
MTEXTBEGIN
1070
    73
1070
     1
1070
    44
1040
0.8755509216369572
1070
    74
1070
     0
1000
MTEXTEND
  0
MTEXT
  5
227
330
A
100
AcDbEntity
  8
0
100
AcDbMText
 10
-189.1953248022071
 20
-88.79795627519024
 30
0.0
 40
27.14735243055556
 41
0.0
 71
     1
 72
     1
  1
{\C7;\l\U+203B\U+4e0a\U+56f3\U+306f\U+ff2c\U+ff08\U+5de6\U+ff09\U+30bf \U+30a4\U+30d7}
  7
ＭＳ ゴシック
 73
     1
 44
0.8755509216369572
1001
ACAD
1000
MTEXTBEGIN
1070
    73
1070
     1
1070
    44
1040
0.8755509216369572
1070
    74
1070
     0
1000
MTEXTEND
  0
MTEXT
  5
228
330
A
100
AcDbEntity
  8
実形
 62
     7
100
AcDbMText
 10
-189.7179076261202
 20
-30.38183350694089
 30
0.0
 40
27.14735243055556
 41
0.0
 71
     1
 72
     1
  1
\U+203B\U+30b7\U+30f3\U+30af\U+306b\U+6c34\U+6813\U+7a74\U+306f\U+8a2d\U+3051\U+3089\U+308c\U+307e\U+305b\U+3093\U+3002
  7
ＭＳ ゴシック
 73
     1
 44
0.7828267384257845
1001
ACAD
1000
MTEXTBEGIN
1070
    73
1070
     1
1070
    44
1040
0.7828267384257845
1070
    74
1070
     0
1000
MTEXTEND
  0
LINE
  5
229
330
A
100
AcDbEntity
  8
一般
 62
     0
100
AcDbLine
 10
2499.472892216275
 20
1644.730014220108
 30
0.0
 11
1779.472892216275
 21
1644.730014220108
 31
0.0
  0
LINE
  5
22A
330
A
100
AcDbEntity
  8
一般
 62
     0
100
AcDbLine
 10
2499.472892216275
 20
1579.730014220108
 30
0.0
 11
1779.472892216275
 21
1579.730014220108
 31
0.0
  0
LINE
  5
22B
330
A
100
AcDbEntity
  8
一般
 62
     0
100
AcDbLine
 10
1779.472892216275
 20
1514.730014220108
 30
0.0
 11
1779.472892216275
 21
1709.730014220108
 31
0.0
  0
LINE
  5
22C
330
A
100
AcDbEntity
  8
一般
 62
     0
100
AcDbLine
 10
1949.472892216275
 20
1513.730014220108
 30
0.0
 11
1949.472892216275
 21
1709.730014220108
 31
0.0
  0
LINE
  5
22D
330
A
100
AcDbEntity
  8
一般
 62
     0
100
AcDbLine
 10
2224.472892216275
 20
1514.730014220108
 30
0.0
 11
2224.472892216275
 21
1709.730014220108
 31
0.0
  0
WIPEOUT
  5
22E
330
A
100
AcDbEntity
  8
一般
 62
     0
 92
      276
310
1401000003000000800000000A000000BD6DDB3DE41F9C40940243DF3CD09940000000000000000000000000000000000000000000000000000000000000F03F000000000000F03F000000000000000000000000000000000000000000000000000000000000F03F000000000000000041634462576970656F757420285769
310
70654F757429000000840000000600000005000000BD6DDB3DE41F9C40940243DF3CD099400000000000000000BC6D1B39F02E9E40940243DF3CD099400000000000000000BC6D1B39F02E9E40E903D988EB7F9A400000000000000000BD6DDB3DE41F9C40E903D988EB7F9A400000000000000000BD6DDB3DE41F9C409402
310
43DF3CD0994000000000000000000800000015000000
100
AcDbWipeout
 90
        0
 10
1799.972892216275
 20
2013.199125648666
 30
0.0
 11
131.7617006301879
 21
0.0
 31
0.0
 12
0.0
 22
131.7617006301879
 32
0.0
 13
1.0
 23
1.0
340
0
 70
     7
280
     1
281
    50
282
    50
283
     0
360
0
 71
     2
 91
        5
 14
-0.5
 24
3.240854728615328
 14
0.4999999999999992
 24
3.240854728615328
 14
0.4999999999999992
 24
2.907521380730267
 14
-0.5
 24
2.907521380730267
 14
-0.5
 24
3.240854728615328
  0
MTEXT
  5
22F
330
A
100
AcDbEntity
  8
一般
 62
     0
100
AcDbMText
 10
1799.972892216275
 20
1692.006575262016
 30
0.0
 40
33.79825020482697
 41
0.0
 71
     1
 72
     1
  1
\U+90e8\U+54c1\U+540d
  7
ＭＳ ゴシック
 73
     1
 44
0.7828267384257845
1001
ACAD
1000
MTEXTBEGIN
1070
    73
1070
     1
1070
    44
1040
0.7828267384257845
1070
    74
1070
     0
1000
MTEXTEND
  0
WIPEOUT
  5
230
330
A
100
AcDbEntity
  8
一般
 62
     0
 92
      276
310
1401000003000000800000000A000000BD6DDB3DE4019C402492BCC179C39740000000000000000000000000000000000000000000000000000000000000F03F000000000000F03F000000000000000000000000000000000000000000000000000000000000F03F000000000000000041634462576970656F757420285769
310
70654F757429000000840000000600000005000000BD6DDB3DE4019C402492BCC179C39740000000000000000010C3309339289E402492BCC179C39740000000000000000010C3309339289E40EC03D988EB7A98400000000000000000BD6DDB3DE4019C40EC03D988EB7A98400000000000000000BD6DDB3DE4019C402492
310
BCC179C3974000000000000000000800000015000000
100
AcDbWipeout
 90
        0
 10
1792.472892216275
 20
1882.008583331645
 30
0.0
 11
137.5833333333332
 21
0.0
 31
0.0
 12
0.0
 22
137.5833333333332
 32
0.0
 13
1.0
 23
1.0
340
0
 70
     7
280
     1
281
    50
282
    50
283
     0
360
0
 71
     2
 91
        5
 14
-0.5
 24
3.124879565518945
 14
0.4999999999999984
 24
3.124879565518945
 14
0.4999999999999984
 24
2.791546232185611
 14
-0.5
 24
2.791546232185611
 14
-0.5
 24
3.124879565518945
  0
MTEXT
  5
231
330
A
100
AcDbEntity
  8
一般
 62
     0
100
AcDbMText
 10
1792.472892216275
 20
1562.581016824275
 30
0.0
 40
35.29155815972223
 41
0.0
 71
     1
 72
     1
  1
\U+30dc\U+30fc\U+30eb
  7
ＭＳ ゴシック
 73
     1
 44
0.7828267384257841
1001
ACAD
1000
MTEXTBEGIN
1070
    73
1070
     1
1070
    44
1040
0.7828267384257841
1070
    74
1070
     0
1000
MTEXTEND
  0
WIPEOUT
  5
232
330
A
100
AcDbEntity
  8
一般
 62
     0
 92
      276
310
1401000003000000800000000A000000C16DDB3DE4E99F405ACA7F505BCC9940000000000000000000000000000000000000000000000000000000000000F03F000000000000F03F000000000000000000000000000000000000000000000000000000000000F03F000000000000000041634462576970656F757420285769
310
70654F757429000000840000000600000005000000C16DDB3DE4E99F405ACA7F505BCC99400000000000000000A7280AE663ACA0405ACA7F505BCC99400000000000000000A7280AE663ACA040203C9C17CD839A400000000000000000C16DDB3DE4E99F40203C9C17CD839A400000000000000000C16DDB3DE4E99F405ACA
310
7F505BCC994000000000000000000800000015000000
100
AcDbWipeout
 90
        0
 10
2042.472892216276
 20
2012.228854490155
 30
0.0
 11
91.72222222222215
 21
0.0
 31
0.0
 12
0.0
 22
91.72222222222215
 32
0.0
 13
1.0
 23
1.0
340
0
 70
     7
280
     1
281
    50
282
    50
283
     0
360
0
 71
     2
 91
        5
 14
-0.5
 24
4.437319348278419
 14
0.5
 24
4.437319348278419
 14
0.5
 24
3.937319348278418
 14
-0.5
 24
3.937319348278418
 14
-0.5
 24
4.437319348278419
  0
MTEXT
  5
233
330
A
100
AcDbEntity
  8
一般
 62
     0
100
AcDbMText
 10
2042.472892216276
 20
1692.801287982784
 30
0.0
 40
35.29155815972223
 41
0.0
 71
     1
 72
     1
  1
\U+6750\U+8cea
  7
ＭＳ ゴシック
 73
     1
 44
0.7828267384257841
1001
ACAD
1000
MTEXTBEGIN
1070
    73
1070
     1
1070
    44
1040
0.7828267384257841
1070
    74
1070
     0
1000
MTEXTEND
  0
WIPEOUT
  5
234
330
A
100
AcDbEntity
  8
一般
 62
     0
 92
      276
310
1401000003000000800000000A000000DEB6ED1EF2B6A140BB0F80F423D39940000000000000000000000000000000000000000000000000000000000000F03F000000000000F03F000000000000000000000000000000000000000000000000000000000000F03F000000000000000041634462576970656F757420285769
310
70654F757429000000840000000600000005000000DEB6ED1EF2B6A140BB0F80F423D399400000000000000000DFB6ED1EF233A340BB0F80F423D399400000000000000000DFB6ED1EF233A340F49D632DB2989A400000000000000000DEB6ED1EF2B6A140F49D632DB2989A400000000000000000DEB6ED1EF2B6A140BB0F
310
80F423D3994000000000000000000800000015000000
100
AcDbWipeout
 90
        0
 10
2267.472892216275
 20
2013.924792604545
 30
0.0
 11
190.5000000000001
 21
0.0
 31
0.0
 12
0.0
 22
190.5000000000001
 32
0.0
 13
1.0
 23
1.0
340
0
 70
     7
280
     1
281
    50
282
    50
283
     0
360
0
 71
     2
 91
        5
 14
-0.5
 24
2.395746352874791
 14
0.5000000000000018
 24
2.395746352874791
 14
0.5000000000000018
 24
2.136487093615532
 14
-0.5
 24
2.136487093615532
 14
-0.5
 24
2.395746352874791
  0
MTEXT
  5
235
330
A
100
AcDbEntity
  8
一般
 62
     0
100
AcDbMText
 10
2267.472892216275
 20
1697.705850229118
 30
0.0
 40
35.29155815972223
 41
0.0
 71
     1
 72
     1
  1
\U+7d20\U+6750{\H1.077x;\l\U+5bf8\U+6cd5}
  7
ＭＳ ゴシック
 73
     1
 44
0.7828267384257845
1001
ACAD
1000
MTEXTBEGIN
1070
    73
1070
     1
1070
    44
1040
0.7828267384257845
1070
    74
1070
     0
1000
MTEXTEND
  0
WIPEOUT
  5
236
330
A
100
AcDbEntity
  8
一般
 62
     0
 92
      276
310
1401000003000000800000000A000000DC344D5A2B8E9F4006CB4AA532CB9840000000000000000000000000000000000000000000000000000000000000F03F000000000000F03F000000000000000000000000000000000000000000000000000000000000F03F000000000000000041634462576970656F757420285769
310
70654F757429000000840000000600000005000000DC344D5A2B8E9F4006CB4AA532CB984000000000000000001945D15740DAA04006CB4AA532CB984000000000000000001945D15740DAA040CC3C676CA48299400000000000000000DC344D5A2B8E9F40CC3C676CA48299400000000000000000DC344D5A2B8E9F4006CB
310
4AA532CB984000000000000000000800000015000000
100
AcDbWipeout
 90
        0
 10
2019.54233666072
 20
1947.9391388872
 30
0.0
 11
137.5833333333332
 21
0.0
 31
0.0
 12
0.0
 22
137.5833333333332
 32
0.0
 13
1.0
 23
1.0
340
0
 70
     7
280
     1
281
    50
282
    50
283
     0
360
0
 71
     2
 91
        5
 14
-0.5
 24
3.124879565518943
 14
0.5000000000000016
 24
3.124879565518943
 14
0.5000000000000016
 24
2.791546232185611
 14
-0.5
 24
2.791546232185611
 14
-0.5
 24
3.124879565518943
  0
MTEXT
  5
237
330
A
100
AcDbEntity
  8
一般
 62
     0
100
AcDbMText
 10
2019.54233666072
 20
1628.51157237983
 30
0.0
 40
35.29155815972223
 41
0.0
 71
     1
 72
     1
  1
SUS304
  7
ＭＳ ゴシック
 73
     1
 44
0.7828267384257841
1001
ACAD
1000
MTEXTBEGIN
1070
    73
1070
     1
1070
    44
1040
0.7828267384257841
1070
    74
1070
     0
1000
MTEXTEND
  0
WIPEOUT
  5
238
330
A
100
AcDbEntity
  8
一般
 62
     0
 92
      276
310
1401000003000000800000000A000000B98D29532DD0A140C739DA5ABFD79840000000000000000000000000000000000000000000000000000000000000F03F000000000000F03F000000000000000000000000000000000000000000000000000000000000F03F000000000000000041634462576970656F757420285769
310
70654F757429000000840000000600000005000000B98D29532DD0A140C739DA5ABFD798400000000000000000633894517109A340C739DA5ABFD798400000000000000000633894517109A3408EABF621318F99400000000000000000B98D29532DD0A1408EABF621318F99400000000000000000B98D29532DD0A140C739
310
DA5ABFD7984000000000000000000800000015000000
100
AcDbWipeout
 90
        0
 10
2280.08852510314
 20
1951.076550234718
 30
0.0
 11
156.6328004201253
 21
0.0
 31
0.0
 12
0.0
 22
156.6328004201253
 32
0.0
 13
1.0
 23
1.0
340
0
 70
     7
280
     1
281
    50
282
    50
283
     0
360
0
 71
     2
 91
        5
 14
-0.5
 24
2.805645300690455
 14
0.4999999999999984
 24
2.805645300690455
 14
0.4999999999999984
 24
2.512851511726069
 14
-0.5
 24
2.512851511726069
 14
-0.5
 24
2.805645300690455
  0
MTEXT
  5
239
330
A
100
AcDbEntity
  8
一般
 62
     0
100
AcDbMText
 10
2280.08852510314
 20
1631.648983727347
 30
0.0
 40
35.29155815972223
 41
0.0
 71
     1
 72
     1
  1
1.0{\H0.9577x;\l\U+ff4d\U+ff4d}
  7
ＭＳ ゴシック
 73
     1
 44
0.7828267384257841
1001
ACAD
1000
MTEXTBEGIN
1070
    73
1070
     1
1070
    44
1040
0.7828267384257841
1070
    74
1070
     0
1000
MTEXTEND
  0
LINE
  5
23A
330
A
100
AcDbEntity
  8
一般
 62
     0
100
AcDbLine
 10
2499.472892216276
 20
1514.730014220108
 30
0.0
 11
1779.472892216275
 21
1514.730014220108
 31
0.0
  0
WIPEOUT
  5
23B
330
A
100
AcDbEntity
  8
一般
 62
     0
 92
      276
310
1401000003000000800000000A00000010C33093B9529C4009CB4AA532D79840000000000000000000000000000000000000000000000000000000000000F03F000000000000F03F000000000000000000000000000000000000000000000000000000000000F03F000000000000000041634462576970656F757420285769
310
70654F75742900000084000000060000000500000010C33093B9529C4009CB4AA532D7984000000000000000009EA669219DC19D4009CB4AA532D7984000000000000000009EA669219DC19D40D03C676CA48E9940000000000000000010C33093B9529C40D03C676CA48E9940000000000000000010C33093B9529C4009CB
310
4AA532D7984000000000000000000800000015000000
100
AcDbWipeout
 90
        0
 10
1812.681225549608
 20
1950.939138887201
 30
0.0
 11
91.72222222222215
 21
0.0
 31
0.0
 12
0.0
 22
91.72222222222215
 32
0.0
 13
1.0
 23
1.0
340
0
 70
     7
280
     1
281
    50
282
    50
283
     0
360
0
 71
     2
 91
        5
 14
-0.5
 24
4.437319348278417
 14
0.5
 24
4.437319348278417
 14
0.5
 24
3.937319348278418
 14
-0.5
 24
3.937319348278418
 14
-0.5
 24
4.437319348278417
  0
MTEXT
  5
23C
330
A
100
AcDbEntity
  8
一般
 62
     0
100
AcDbMText
 10
1812.681225549608
 20
1631.511572379831
 30
0.0
 40
35.29155815972223
 41
0.0
 71
     1
 72
     1
  1
\U+5929\U+677f
  7
ＭＳ ゴシック
 73
     1
 44
0.7828267384257841
1001
ACAD
1000
MTEXTBEGIN
1070
    73
1070
     1
1070
    44
1040
0.7828267384257841
1070
    74
1070
     0
1000
MTEXTEND
  0
WIPEOUT
  5
23D
330
A
100
AcDbEntity
  8
一般
 62
     0
 92
      276
310
1401000003000000800000000A00000016C33093B9929F4007CB4AA532CB9740000000000000000000000000000000000000000000000000000000000000F03F000000000000F03F000000000000000000000000000000000000000000000000000000000000F03F000000000000000041634462576970656F757420285769
310
70654F75742900000084000000060000000500000016C33093B9929F4007CB4AA532CB97400000000000000000350C437487DCA04007CB4AA532CB97400000000000000000350C437487DCA040CD3C676CA4829840000000000000000016C33093B9929F40CD3C676CA4829840000000000000000016C33093B9929F4007CB
310
4AA532CB974000000000000000000800000015000000
100
AcDbWipeout
 90
        0
 10
2020.681225549609
 20
1883.9391388872
 30
0.0
 11
137.5833333333332
 21
0.0
 31
0.0
 12
0.0
 22
137.5833333333332
 32
0.0
 13
1.0
 23
1.0
340
0
 70
     7
280
     1
281
    50
282
    50
283
     0
360
0
 71
     2
 91
        5
 14
-0.5
 24
3.124879565518943
 14
0.5
 24
3.124879565518943
 14
0.5
 24
2.791546232185611
 14
-0.5
 24
2.791546232185611
 14
-0.5
 24
3.124879565518943
  0
MTEXT
  5
23E
330
A
100
AcDbEntity
  8
一般
 62
     0
100
AcDbMText
 10
2020.681225549609
 20
1564.51157237983
 30
0.0
 40
35.29155815972223
 41
0.0
 71
     1
 72
     1
  1
SUS304
  7
ＭＳ ゴシック
 73
     1
 44
0.7828267384257841
1001
ACAD
1000
MTEXTBEGIN
1070
    73
1070
     1
1070
    44
1040
0.7828267384257841
1070
    74
1070
     0
1000
MTEXTEND
  0
WIPEOUT
  5
23F
330
A
100
AcDbEntity
  8
一般
 62
     0
 92
      276
310
1401000003000000800000000A000000B98D29532DD0A14005CB4AA532C39740000000000000000000000000000000000000000000000000000000000000F03F000000000000F03F000000000000000000000000000000000000000000000000000000000000F03F000000000000000041634462576970656F757420285769
310
70654F757429000000840000000600000005000000B98D29532DD0A14005CB4AA532C397400000000000000000633894517109A34005CB4AA532C397400000000000000000633894517109A340CB3C676CA47A98400000000000000000B98D29532DD0A140CB3C676CA47A98400000000000000000B98D29532DD0A14005CB
310
4AA532C3974000000000000000000800000015000000
100
AcDbWipeout
 90
        0
 10
2280.08852510314
 20
1881.9391388872
 30
0.0
 11
156.6328004201253
 21
0.0
 31
0.0
 12
0.0
 22
156.6328004201253
 32
0.0
 13
1.0
 23
1.0
340
0
 70
     7
280
     1
281
    50
282
    50
283
     0
360
0
 71
     2
 91
        5
 14
-0.5
 24
2.805645300690454
 14
0.4999999999999984
 24
2.805645300690454
 14
0.4999999999999984
 24
2.512851511726069
 14
-0.5
 24
2.512851511726069
 14
-0.5
 24
2.805645300690454
  0
MTEXT
  5
240
330
A
100
AcDbEntity
  8
一般
 62
     0
100
AcDbMText
 10
2280.08852510314
 20
1562.51157237983
 30
0.0
 40
35.29155815972223
 41
0.0
 71
     1
 72
     1
  1
0.7{\H0.9577x;\l\U+ff4d\U+ff4d}
  7
ＭＳ ゴシック
 73
     1
 44
0.7828267384257841
1001
ACAD
1000
MTEXTBEGIN
1070
    73
1070
     1
1070
    44
1040
0.7828267384257841
1070
    74
1070
     0
1000
MTEXTEND
  0
LINE
  5
241
330
A
100
AcDbEntity
  8
一般
 62
     0
100
AcDbLine
 10
2499.472892216275
 20
1644.730014220108
 30
0.0
 11
1779.472892216275
 21
1644.730014220108
 31
0.0
  0
LINE
  5
242
330
A
100
AcDbEntity
  8
一般
 62
     0
100
AcDbLine
 10
2499.472892216275
 20
1579.730014220108
 30
0.0
 11
1779.472892216275
 21
1579.730014220108
 31
0.0
  0
LINE
  5
243
330
A
100
AcDbEntity
  8
一般
 62
     0
100
AcDbLine
 10
1779.472892216275
 20
1514.730014220108
 30
0.0
 11
1779.472892216275
 21
1709.730014220108
 31
0.0
  0
LINE
  5
244
330
A
100
AcDbEntity
  8
一般
 62
     0
100
AcDbLine
 10
1949.472892216275
 20
1513.730014220108
 30
0.0
 11
1949.472892216275
 21
1709.730014220108
 31
0.0
  0
LINE
  5
245
330
A
100
AcDbEntity
  8
一般
 62
     0
100
AcDbLine
 10
2224.472892216275
 20
1514.730014220108
 30
0.0
 11
2224.472892216275
 21
1709.730014220108
 31
0.0
  0
WIPEOUT
  5
246
330
A
100
AcDbEntity
  8
一般
 62
     0
 92
      276
310
1401000003000000800000000A000000BD6DDB3DE41F9C40940243DF3CD09940000000000000000000000000000000000000000000000000000000000000F03F000000000000F03F000000000000000000000000000000000000000000000000000000000000F03F000000000000000041634462576970656F757420285769
310
70654F757429000000840000000600000005000000BD6DDB3DE41F9C40940243DF3CD099400000000000000000BC6D1B39F02E9E40940243DF3CD099400000000000000000BC6D1B39F02E9E40E903D988EB7F9A400000000000000000BD6DDB3DE41F9C40E903D988EB7F9A400000000000000000BD6DDB3DE41F9C409402
310
43DF3CD0994000000000000000000800000015000000
100
AcDbWipeout
 90
        0
 10
1799.972892216275
 20
2013.199125648666
 30
0.0
 11
131.7617006301879
 21
0.0
 31
0.0
 12
0.0
 22
131.7617006301879
 32
0.0
 13
1.0
 23
1.0
340
0
 70
     7
280
     1
281
    50
282
    50
283
     0
360
0
 71
     2
 91
        5
 14
-0.5
 24
3.240854728615328
 14
0.4999999999999992
 24
3.240854728615328
 14
0.4999999999999992
 24
2.907521380730267
 14
-0.5
 24
2.907521380730267
 14
-0.5
 24
3.240854728615328
  0
MTEXT
  5
247
330
A
100
AcDbEntity
  8
一般
 62
     0
100
AcDbMText
 10
1799.972892216275
 20
1692.006575262016
 30
0.0
 40
33.79825020482697
 41
0.0
 71
     1
 72
     1
  1
\U+90e8\U+54c1\U+540d
  7
ＭＳ ゴシック
 73
     1
 44
0.7828267384257845
1001
ACAD
1000
MTEXTBEGIN
1070
    73
1070
     1
1070
    44
1040
0.7828267384257845
1070
    74
1070
     0
1000
MTEXTEND
  0
WIPEOUT
  5
248
330
A
100
AcDbEntity
  8
一般
 62
     0
 92
      276
310
1401000003000000800000000A000000BD6DDB3DE4019C402492BCC179C39740000000000000000000000000000000000000000000000000000000000000F03F000000000000F03F000000000000000000000000000000000000000000000000000000000000F03F000000000000000041634462576970656F757420285769
310
70654F757429000000840000000600000005000000BD6DDB3DE4019C402492BCC179C39740000000000000000010C3309339289E402492BCC179C39740000000000000000010C3309339289E40EC03D988EB7A98400000000000000000BD6DDB3DE4019C40EC03D988EB7A98400000000000000000BD6DDB3DE4019C402492
310
BCC179C3974000000000000000000800000015000000
100
AcDbWipeout
 90
        0
 10
1792.472892216275
 20
1882.008583331645
 30
0.0
 11
137.5833333333332
 21
0.0
 31
0.0
 12
0.0
 22
137.5833333333332
 32
0.0
 13
1.0
 23
1.0
340
0
 70
     7
280
     1
281
    50
282
    50
283
     0
360
0
 71
     2
 91
        5
 14
-0.5
 24
3.124879565518945
 14
0.4999999999999984
 24
3.124879565518945
 14
0.4999999999999984
 24
2.791546232185611
 14
-0.5
 24
2.791546232185611
 14
-0.5
 24
3.124879565518945
  0
MTEXT
  5
249
330
A
100
AcDbEntity
  8
一般
 62
     0
100
AcDbMText
 10
1792.472892216275
 20
1562.581016824275
 30
0.0
 40
35.29155815972223
 41
0.0
 71
     1
 72
     1
  1
\U+30dc\U+30fc\U+30eb
  7
ＭＳ ゴシック
 73
     1
 44
0.7828267384257841
1001
ACAD
1000
MTEXTBEGIN
1070
    73
1070
     1
1070
    44
1040
0.7828267384257841
1070
    74
1070
     0
1000
MTEXTEND
  0
WIPEOUT
  5
24A
330
A
100
AcDbEntity
  8
一般
 62
     0
 92
      276
310
1401000003000000800000000A000000C16DDB3DE4E99F405ACA7F505BCC9940000000000000000000000000000000000000000000000000000000000000F03F000000000000F03F000000000000000000000000000000000000000000000000000000000000F03F000000000000000041634462576970656F757420285769
310
70654F757429000000840000000600000005000000C16DDB3DE4E99F405ACA7F505BCC99400000000000000000A7280AE663ACA0405ACA7F505BCC99400000000000000000A7280AE663ACA040203C9C17CD839A400000000000000000C16DDB3DE4E99F40203C9C17CD839A400000000000000000C16DDB3DE4E99F405ACA
310
7F505BCC994000000000000000000800000015000000
100
AcDbWipeout
 90
        0
 10
2042.472892216276
 20
2012.228854490155
 30
0.0
 11
91.72222222222215
 21
0.0
 31
0.0
 12
0.0
 22
91.72222222222215
 32
0.0
 13
1.0
 23
1.0
340
0
 70
     7
280
     1
281
    50
282
    50
283
     0
360
0
 71
     2
 91
        5
 14
-0.5
 24
4.437319348278419
 14
0.5
 24
4.437319348278419
 14
0.5
 24
3.937319348278418
 14
-0.5
 24
3.937319348278418
 14
-0.5
 24
4.437319348278419
  0
MTEXT
  5
24B
330
A
100
AcDbEntity
  8
一般
 62
     0
100
AcDbMText
 10
2042.472892216276
 20
1692.801287982784
 30
0.0
 40
35.29155815972223
 41
0.0
 71
     1
 72
     1
  1
\U+6750\U+8cea
  7
ＭＳ ゴシック
 73
     1
 44
0.7828267384257841
1001
ACAD
1000
MTEXTBEGIN
1070
    73
1070
     1
1070
    44
1040
0.7828267384257841
1070
    74
1070
     0
1000
MTEXTEND
  0
WIPEOUT
  5
24C
330
A
100
AcDbEntity
  8
一般
 62
     0
 92
      276
310
1401000003000000800000000A000000DEB6ED1EF2B6A140BB0F80F423D39940000000000000000000000000000000000000000000000000000000000000F03F000000000000F03F000000000000000000000000000000000000000000000000000000000000F03F000000000000000041634462576970656F757420285769
310
70654F757429000000840000000600000005000000DEB6ED1EF2B6A140BB0F80F423D399400000000000000000DFB6ED1EF233A340BB0F80F423D399400000000000000000DFB6ED1EF233A340F49D632DB2989A400000000000000000DEB6ED1EF2B6A140F49D632DB2989A400000000000000000DEB6ED1EF2B6A140BB0F
310
80F423D3994000000000000000000800000015000000
100
AcDbWipeout
 90
        0
 10
2267.472892216275
 20
2013.924792604545
 30
0.0
 11
190.5000000000001
 21
0.0
 31
0.0
 12
0.0
 22
190.5000000000001
 32
0.0
 13
1.0
 23
1.0
340
0
 70
     7
280
     1
281
    50
282
    50
283
     0
360
0
 71
     2
 91
        5
 14
-0.5
 24
2.395746352874791
 14
0.5000000000000018
 24
2.395746352874791
 14
0.5000000000000018
 24
2.136487093615532
 14
-0.5
 24
2.136487093615532
 14
-0.5
 24
2.395746352874791
  0
MTEXT
  5
24D
330
A
100
AcDbEntity
  8
一般
 62
     0
100
AcDbMText
 10
2267.472892216275
 20
1697.705850229118
 30
0.0
 40
35.29155815972223
 41
0.0
 71
     1
 72
     1
  1
\U+7d20\U+6750{\H1.077x;\l\U+5bf8\U+6cd5}
  7
ＭＳ ゴシック
 73
     1
 44
0.7828267384257845
1001
ACAD
1000
MTEXTBEGIN
1070
    73
1070
     1
1070
    44
1040
0.7828267384257845
1070
    74
1070
     0
1000
MTEXTEND
  0
WIPEOUT
  5
24E
330
A
100
AcDbEntity
  8
一般
 62
     0
 92
      276
310
1401000003000000800000000A000000DC344D5A2B8E9F4006CB4AA532CB9840000000000000000000000000000000000000000000000000000000000000F03F000000000000F03F000000000000000000000000000000000000000000000000000000000000F03F000000000000000041634462576970656F757420285769
310
70654F757429000000840000000600000005000000DC344D5A2B8E9F4006CB4AA532CB984000000000000000001945D15740DAA04006CB4AA532CB984000000000000000001945D15740DAA040CC3C676CA48299400000000000000000DC344D5A2B8E9F40CC3C676CA48299400000000000000000DC344D5A2B8E9F4006CB
310
4AA532CB984000000000000000000800000015000000
100
AcDbWipeout
 90
        0
 10
2019.54233666072
 20
1947.9391388872
 30
0.0
 11
137.5833333333332
 21
0.0
 31
0.0
 12
0.0
 22
137.5833333333332
 32
0.0
 13
1.0
 23
1.0
340
0
 70
     7
280
     1
281
    50
282
    50
283
     0
360
0
 71
     2
 91
        5
 14
-0.5
 24
3.124879565518943
 14
0.5000000000000016
 24
3.124879565518943
 14
0.5000000000000016
 24
2.791546232185611
 14
-0.5
 24
2.791546232185611
 14
-0.5
 24
3.124879565518943
  0
MTEXT
  5
24F
330
A
100
AcDbEntity
  8
一般
 62
     0
100
AcDbMText
 10
2019.54233666072
 20
1628.51157237983
 30
0.0
 40
35.29155815972223
 41
0.0
 71
     1
 72
     1
  1
SUS304
  7
ＭＳ ゴシック
 73
     1
 44
0.7828267384257841
1001
ACAD
1000
MTEXTBEGIN
1070
    73
1070
     1
1070
    44
1040
0.7828267384257841
1070
    74
1070
     0
1000
MTEXTEND
  0
WIPEOUT
  5
250
330
A
100
AcDbEntity
  8
一般
 62
     0
 92
      276
310
1401000003000000800000000A000000B98D29532DD0A140C739DA5ABFD79840000000000000000000000000000000000000000000000000000000000000F03F000000000000F03F000000000000000000000000000000000000000000000000000000000000F03F000000000000000041634462576970656F757420285769
310
70654F757429000000840000000600000005000000B98D29532DD0A140C739DA5ABFD798400000000000000000633894517109A340C739DA5ABFD798400000000000000000633894517109A3408EABF621318F99400000000000000000B98D29532DD0A1408EABF621318F99400000000000000000B98D29532DD0A140C739
310
DA5ABFD7984000000000000000000800000015000000
100
AcDbWipeout
 90
        0
 10
2280.08852510314
 20
1951.076550234718
 30
0.0
 11
156.6328004201253
 21
0.0
 31
0.0
 12
0.0
 22
156.6328004201253
 32
0.0
 13
1.0
 23
1.0
340
0
 70
     7
280
     1
281
    50
282
    50
283
     0
360
0
 71
     2
 91
        5
 14
-0.5
 24
2.805645300690455
 14
0.4999999999999984
 24
2.805645300690455
 14
0.4999999999999984
 24
2.512851511726069
 14
-0.5
 24
2.512851511726069
 14
-0.5
 24
2.805645300690455
  0
MTEXT
  5
251
330
A
100
AcDbEntity
  8
一般
 62
     0
100
AcDbMText
 10
2280.08852510314
 20
1631.648983727347
 30
0.0
 40
35.29155815972223
 41
0.0
 71
     1
 72
     1
  1
1.0{\H0.9577x;\l\U+ff4d\U+ff4d}
  7
ＭＳ ゴシック
 73
     1
 44
0.7828267384257841
1001
ACAD
1000
MTEXTBEGIN
1070
    73
1070
     1
1070
    44
1040
0.7828267384257841
1070
    74
1070
     0
1000
MTEXTEND
  0
LINE
  5
252
330
A
100
AcDbEntity
  8
一般
 62
     0
100
AcDbLine
 10
2499.472892216276
 20
1514.730014220108
 30
0.0
 11
1779.472892216275
 21
1514.730014220108
 31
0.0
  0
WIPEOUT
  5
253
330
A
100
AcDbEntity
  8
一般
 62
     0
 92
      276
310
1401000003000000800000000A00000010C33093B9529C4009CB4AA532D79840000000000000000000000000000000000000000000000000000000000000F03F000000000000F03F000000000000000000000000000000000000000000000000000000000000F03F000000000000000041634462576970656F757420285769
310
70654F75742900000084000000060000000500000010C33093B9529C4009CB4AA532D7984000000000000000009EA669219DC19D4009CB4AA532D7984000000000000000009EA669219DC19D40D03C676CA48E9940000000000000000010C33093B9529C40D03C676CA48E9940000000000000000010C33093B9529C4009CB
310
4AA532D7984000000000000000000800000015000000
100
AcDbWipeout
 90
        0
 10
1812.681225549608
 20
1950.939138887201
 30
0.0
 11
91.72222222222215
 21
0.0
 31
0.0
 12
0.0
 22
91.72222222222215
 32
0.0
 13
1.0
 23
1.0
340
0
 70
     7
280
     1
281
    50
282
    50
283
     0
360
0
 71
     2
 91
        5
 14
-0.5
 24
4.437319348278417
 14
0.5
 24
4.437319348278417
 14
0.5
 24
3.937319348278418
 14
-0.5
 24
3.937319348278418
 14
-0.5
 24
4.437319348278417
  0
MTEXT
  5
254
330
A
100
AcDbEntity
  8
一般
 62
     0
100
AcDbMText
 10
1812.681225549608
 20
1631.511572379831
 30
0.0
 40
35.29155815972223
 41
0.0
 71
     1
 72
     1
  1
\U+5929\U+677f
  7
ＭＳ ゴシック
 73
     1
 44
0.7828267384257841
1001
ACAD
1000
MTEXTBEGIN
1070
    73
1070
     1
1070
    44
1040
0.7828267384257841
1070
    74
1070
     0
1000
MTEXTEND
  0
WIPEOUT
  5
255
330
A
100
AcDbEntity
  8
一般
 62
     0
 92
      276
310
1401000003000000800000000A00000016C33093B9929F4007CB4AA532CB9740000000000000000000000000000000000000000000000000000000000000F03F000000000000F03F000000000000000000000000000000000000000000000000000000000000F03F000000000000000041634462576970656F757420285769
310
70654F75742900000084000000060000000500000016C33093B9929F4007CB4AA532CB97400000000000000000350C437487DCA04007CB4AA532CB97400000000000000000350C437487DCA040CD3C676CA4829840000000000000000016C33093B9929F40CD3C676CA4829840000000000000000016C33093B9929F4007CB
310
4AA532CB974000000000000000000800000015000000
100
AcDbWipeout
 90
        0
 10
2020.681225549609
 20
1883.9391388872
 30
0.0
 11
137.5833333333332
 21
0.0
 31
0.0
 12
0.0
 22
137.5833333333332
 32
0.0
 13
1.0
 23
1.0
340
0
 70
     7
280
     1
281
    50
282
    50
283
     0
360
0
 71
     2
 91
        5
 14
-0.5
 24
3.124879565518943
 14
0.5
 24
3.124879565518943
 14
0.5
 24
2.791546232185611
 14
-0.5
 24
2.791546232185611
 14
-0.5
 24
3.124879565518943
  0
MTEXT
  5
256
330
A
100
AcDbEntity
  8
一般
 62
     0
100
AcDbMText
 10
2020.681225549609
 20
1564.51157237983
 30
0.0
 40
35.29155815972223
 41
0.0
 71
     1
 72
     1
  1
SUS304
  7
ＭＳ ゴシック
 73
     1
 44
0.7828267384257841
1001
ACAD
1000
MTEXTBEGIN
1070
    73
1070
     1
1070
    44
1040
0.7828267384257841
1070
    74
1070
     0
1000
MTEXTEND
  0
WIPEOUT
  5
257
330
A
100
AcDbEntity
  8
一般
 62
     0
 92
      276
310
1401000003000000800000000A000000B98D29532DD0A14005CB4AA532C39740000000000000000000000000000000000000000000000000000000000000F03F000000000000F03F000000000000000000000000000000000000000000000000000000000000F03F000000000000000041634462576970656F757420285769
310
70654F757429000000840000000600000005000000B98D29532DD0A14005CB4AA532C397400000000000000000633894517109A34005CB4AA532C397400000000000000000633894517109A340CB3C676CA47A98400000000000000000B98D29532DD0A140CB3C676CA47A98400000000000000000B98D29532DD0A14005CB
310
4AA532C3974000000000000000000800000015000000
100
AcDbWipeout
 90
        0
 10
2280.08852510314
 20
1881.9391388872
 30
0.0
 11
156.6328004201253
 21
0.0
 31
0.0
 12
0.0
 22
156.6328004201253
 32
0.0
 13
1.0
 23
1.0
340
0
 70
     7
280
     1
281
    50
282
    50
283
     0
360
0
 71
     2
 91
        5
 14
-0.5
 24
2.805645300690454
 14
0.4999999999999984
 24
2.805645300690454
 14
0.4999999999999984
 24
2.512851511726069
 14
-0.5
 24
2.512851511726069
 14
-0.5
 24
2.805645300690454
  0
MTEXT
  5
258
330
A
100
AcDbEntity
  8
一般
 62
     0
100
AcDbMText
 10
2280.08852510314
 20
1562.51157237983
 30
0.0
 40
35.29155815972223
 41
0.0
 71
     1
 72
     1
  1
0.7{\H0.9577x;\l\U+ff4d\U+ff4d}
  7
ＭＳ ゴシック
 73
     1
 44
0.7828267384257841
1001
ACAD
1000
MTEXTBEGIN
1070
    73
1070
     1
1070
    44
1040
0.7828267384257841
1070
    74
1070
     0
1000
MTEXTEND
  0
ENDSEC
  0
SECTION
  2
OBJECTS
  0
DICTIONARY
  5
19
330
0
100
AcDbDictionary
281
     1
  3
ACAD_COLOR
350
25C
  3
ACAD_GROUP
350
1A
  3
ACAD_LAYOUT
350
1E
  3
ACAD_MATERIAL
350
25B
  3
ACAD_MLINESTYLE
350
1B
  3
ACAD_PLOTSETTINGS
350
22
  3
ACAD_PLOTSTYLENAME
350
1F
  3
ACAD_WIPEOUT_VARS
350
23
  3
AcDbVariableDictionary
350
262
  0
DICTIONARY
  5
25C
102
{ACAD_REACTORS
330
19
102
}
330
19
100
AcDbDictionary
281
     1
  0
DICTIONARY
  5
1A
102
{ACAD_REACTORS
330
19
102
}
330
19
100
AcDbDictionary
281
     1
  0
DICTIONARY
  5
1E
102
{ACAD_REACTORS
330
19
102
}
330
19
100
AcDbDictionary
281
     1
  3
Layout1
350
21
  3
Model
350
20
  0
DICTIONARY
  5
25B
102
{ACAD_REACTORS
330
19
102
}
330
19
100
AcDbDictionary
281
     1
  0
DICTIONARY
  5
1B
102
{ACAD_REACTORS
330
19
102
}
330
19
100
AcDbDictionary
281
     1
  3
Standard
350
1C
  0
DICTIONARY
  5
22
102
{ACAD_REACTORS
330
19
102
}
330
19
100
AcDbDictionary
281
     1
  0
ACDBDICTIONARYWDFLT
  5
1F
102
{ACAD_REACTORS
330
19
102
}
330
19
100
AcDbDictionary
281
     1
  3
Normal
350
1D
100
AcDbDictionaryWithDefault
340
1D
  0
WIPEOUTVARIABLES
  5
23
330
19
100
AcDbWipeoutVariables
 70
     0
  0
DICTIONARY
  5
262
102
{ACAD_REACTORS
330
19
102
}
330
19
100
AcDbDictionary
281
     1
  3
DIMASSOC
350
263
  3
PROJECTNAME
350
264
  0
LAYOUT
  5
21
102
{ACAD_REACTORS
330
1E
102
}
330
1E
100
AcDbPlotSettings
  1

  2

  4

  6

 40
0.0
 41
0.0
 42
0.0
 43
0.0
 44
0.0
 45
0.0
 46
0.0
 47
0.0
 48
0.0
 49
0.0
140
0.0
141
0.0
142
1.0
143
1.0
 70
     0
 72
     0
 73
     0
 74
     0
  7

 75
     0
147
1.0
 76
     0
 77
     2
 78
   300
148
0.0
149
0.0
100
AcDbLayout
  1
Layout1
 70
     0
 71
     1
 10
0.0
 20
0.0
 11
12.0
 21
9.0
 12
0.0
 22
0.0
 32
0.0
 14
1.000000000000000E+20
 24
1.000000000000000E+20
 34
1.000000000000000E+20
 15
-1.000000000000000E+20
 25
-1.000000000000000E+20
 35
-1.000000000000000E+20
146
0.0
 13
0.0
 23
0.0
 33
0.0
 16
1.0
 26
0.0
 36
0.0
 17
0.0
 27
1.0
 37
0.0
 76
     0
330
B
  0
LAYOUT
  5
20
102
{ACAD_REACTORS
330
1E
102
}
330
1E
100
AcDbPlotSettings
  1

  2

  4

  6

 40
0.0
 41
0.0
 42
0.0
 43
0.0
 44
0.0
 45
0.0
 46
0.0
 47
0.0
 48
0.0
 49
0.0
140
0.0
141
0.0
142
1.0
143
1.0
 70
  1024
 72
     0
 73
     0
 74
     0
  7

 75
     0
147
1.0
 76
     0
 77
     2
 78
   300
148
0.0
149
0.0
100
AcDbLayout
  1
Model
 70
     0
 71
     0
 10
0.0
 20
0.0
 11
0.0
 21
0.0
 12
0.0
 22
0.0
 32
0.0
 14
0.0
 24
0.0
 34
0.0
 15
0.0
 25
0.0
 35
0.0
146
0.0
 13
0.0
 23
0.0
 33
0.0
 16
0.0
 26
0.0
 36
0.0
 17
0.0
 27
0.0
 37
0.0
 76
     0
330
A
  0
MLINESTYLE
  5
1C
102
{ACAD_REACTORS
330
1B
102
}
330
1B
100
AcDbMlineStyle
  2
STANDARD
 70
     0
  3

 62
     0
 51
90.0
 52
90.0
 71
     2
 49
0.5
 62
   256
  6
BYLAYER
 49
-0.5
 62
   256
  6
BYLAYER
  0
ACDBPLACEHOLDER
  5
1D
102
{ACAD_REACTORS
330
1F
102
}
330
1F
  0
DICTIONARYVAR
  5
263
102
{ACAD_REACTORS
330
262
102
}
330
262
100
DictionaryVariables
280
     0
  1
1
  0
DICTIONARYVAR
  5
264
102
{ACAD_REACTORS
330
262
102
}
330
262
100
DictionaryVariables
280
     0
  1

  0
ENDSEC
  0
EOF
