  0
SECTION
  2
HEADER
  9
$ACADVER
  1
AC1018
  9
$ACADMAINTVER
 70
     0
  9
$DWGCODEPAGE
  3
ANSI_932
  9
$INSBASE
 10
0.0
 20
0.0
 30
0.0
  9
$EXTMIN
 10
-280.5271077837249
 20
-211.5265575641672
 30
0.0
  9
$EXTMAX
 10
2499.472892216276
 20
1709.730014220108
 30
0.0
  9
$LIMMIN
 10
0.0
 20
0.0
  9
$LIMMAX
 10
0.0
 20
0.0
  9
$ORTHOMODE
 70
     0
  9
$REGENMODE
 70
     1
  9
$FILLMODE
 70
     1
  9
$QTEXTMODE
 70
     0
  9
$MIRRTEXT
 70
     1
  9
$LTSCALE
 40
127.0
  9
$ATTMODE
 70
     1
  9
$TEXTSIZE
 40
0.0
  9
$TRACEWID
 40
1.0
  9
$TEXTSTYLE
  7
Standard
  9
$CLAYER
  8
実形
  9
$CELTYPE
  6
Continuous
  9
$CECOLOR
 62
   256
  9
$CELTSCALE
 40
1.0
  9
$DISPSILH
 70
     0
  9
$DIMSCALE
 40
1.0
  9
$DIMASZ
 40
22.4482421875
  9
$DIMEXO
 40
15.875
  9
$DIMDLI
 40
10.16
  9
$DIMRND
 40
0.0
  9
$DIMDLE
 40
1.587499999999999
  9
$DIMEXE
 40
31.75
  9
$DIMTP
 40
0.0
  9
$DIMTM
 40
0.0
  9
$DIMTXT
 40
24.4326171875
  9
$DIMCEN
 40
0.0
  9
$DIMTSZ
 40
0.0
  9
$DIMTOL
 70
     0
  9
$DIMLIM
 70
     0
  9
$DIMTIH
 70
     0
  9
$DIMTOH
 70
     0
  9
$DIMSE1
 70
     0
  9
$DIMSE2
 70
     0
  9
$DIMTAD
 70
     1
  9
$DIMZIN
 70
    11
  9
$DIMBLK
  1
VW_SLASH
  9
$DIMASO
 70
     1
  9
$DIMSHO
 70
     1
  9
$DIMPOST
  1
<>
  9
$DIMAPOST
  1
[]
  9
$DIMALT
 70
     0
  9
$DIMALTD
 70
     3
  9
$DIMALTF
 40
0.0393700787401575
  9
$DIMLFAC
 40
1.0
  9
$DIMTOFL
 70
     1
  9
$DIMTVP
 40
0.0
  9
$DIMTIX
 70
     1
  9
$DIMSOXD
 70
     0
  9
$DIMSAH
 70
     0
  9
$DIMBLK1
  1

  9
$DIMBLK2
  1

  9
$DIMSTYLE
  2
Arch
  9
$DIMCLRD
 70
     0
  9
$DIMCLRE
 70
     0
  9
$DIMCLRT
 70
     0
  9
$DIMTFAC
 40
0.8
  9
$DIMGAP
 40
1.587499999999999
  9
$DIMJUST
 70
     0
  9
$DIMSD1
 70
     0
  9
$DIMSD2
 70
     0
  9
$DIMTOLJ
 70
     1
  9
$DIMTZIN
 70
    11
  9
$DIMALTZ
 70
    15
  9
$DIMALTTZ
 70
    15
  9
$DIMUPT
 70
     0
  9
$DIMDEC
 70
     1
  9
$DIMTDEC
 70
     1
  9
$DIMALTU
 70
     4
  9
$DIMALTTD
 70
     2
  9
$DIMTXSTY
  7
ＭＳ ゴシック
  9
$DIMAUNIT
 70
     0
  9
$DIMADEC
 70
     2
  9
$DIMALTRND
 40
0.0
  9
$DIMAZIN
 70
     0
  9
$DIMDSEP
 70
    46
  9
$DIMATFIT
 70
     0
  9
$DIMFRAC
 70
     2
  9
$DIMLDRBLK
  1

  9
$DIMLUNIT
 70
     2
  9
$DIMLWD
 70
    -2
  9
$DIMLWE
 70
    -2
  9
$DIMTMOVE
 70
     0
  9
$LUNITS
 70
     2
  9
$LUPREC
 70
     4
  9
$SKETCHINC
 40
0.1
  9
$FILLETRAD
 40
0.0
  9
$AUNITS
 70
     0
  9
$AUPREC
 70
     0
  9
$MENU
  1
acad
  9
$ELEVATION
 40
0.0
  9
$PELEVATION
 40
0.0
  9
$THICKNESS
 40
0.0
  9
$LIMCHECK
 70
     0
  9
$CHAMFERA
 40
0.0
  9
$CHAMFERB
 40
0.0
  9
$CHAMFERC
 40
0.0
  9
$CHAMFERD
 40
0.0
  9
$SKPOLY
 70
     0
  9
$TDCREATE
 40
2454847.610707465
  9
$TDUCREATE
 40
2454847.235707465
  9
$TDUPDATE
 40
2455933.815241782
  9
$TDUUPDATE
 40
2455933.440241782
  9
$TDINDWG
 40
0.0158924653
  9
$TDUSRTIMER
 40
0.0158919329
  9
$USRTIMER
 70
     1
  9
$ANGBASE
 50
0.0
  9
$ANGDIR
 70
     0
  9
$PDMODE
 70
     1
  9
$PDSIZE
 40
-2.0
  9
$PLINEWID
 40
0.0
  9
$SPLFRAME
 70
     0
  9
$SPLINETYPE
 70
     6
  9
$SPLINESEGS
 70
     8
  9
$HANDSEED
  5
199
  9
$SURFTAB1
 70
     6
  9
$SURFTAB2
 70
     6
  9
$SURFTYPE
 70
     6
  9
$SURFU
 70
     6
  9
$SURFV
 70
     6
  9
$UCSBASE
  2

  9
$UCSNAME
  2

  9
$UCSORG
 10
0.0
 20
0.0
 30
0.0
  9
$UCSXDIR
 10
1.0
 20
0.0
 30
0.0
  9
$UCSYDIR
 10
0.0
 20
1.0
 30
0.0
  9
$UCSORTHOREF
  2

  9
$UCSORTHOVIEW
 70
     0
  9
$UCSORGTOP
 10
0.0
 20
0.0
 30
0.0
  9
$UCSORGBOTTOM
 10
0.0
 20
0.0
 30
0.0
  9
$UCSORGLEFT
 10
0.0
 20
0.0
 30
0.0
  9
$UCSORGRIGHT
 10
0.0
 20
0.0
 30
0.0
  9
$UCSORGFRONT
 10
0.0
 20
0.0
 30
0.0
  9
$UCSORGBACK
 10
0.0
 20
0.0
 30
0.0
  9
$PUCSBASE
  2

  9
$PUCSNAME
  2

  9
$PUCSORG
 10
0.0
 20
0.0
 30
0.0
  9
$PUCSXDIR
 10
1.0
 20
0.0
 30
0.0
  9
$PUCSYDIR
 10
0.0
 20
1.0
 30
0.0
  9
$PUCSORTHOREF
  2

  9
$PUCSORTHOVIEW
 70
     0
  9
$PUCSORGTOP
 10
0.0
 20
0.0
 30
0.0
  9
$PUCSORGBOTTOM
 10
0.0
 20
0.0
 30
0.0
  9
$PUCSORGLEFT
 10
0.0
 20
0.0
 30
0.0
  9
$PUCSORGRIGHT
 10
0.0
 20
0.0
 30
0.0
  9
$PUCSORGFRONT
 10
0.0
 20
0.0
 30
0.0
  9
$PUCSORGBACK
 10
0.0
 20
0.0
 30
0.0
  9
$USERI1
 70
     0
  9
$USERI2
 70
     0
  9
$USERI3
 70
     0
  9
$USERI4
 70
     0
  9
$USERI5
 70
     0
  9
$USERR1
 40
0.0
  9
$USERR2
 40
0.0
  9
$USERR3
 40
0.0
  9
$USERR4
 40
0.0
  9
$USERR5
 40
0.0
  9
$WORLDVIEW
 70
     1
  9
$SHADEDGE
 70
     3
  9
$SHADEDIF
 70
    70
  9
$TILEMODE
 70
     1
  9
$MAXACTVP
 70
    16
  9
$PINSBASE
 10
0.0
 20
0.0
 30
0.0
  9
$PLIMCHECK
 70
     0
  9
$PEXTMIN
 10
1.000000000000000E+20
 20
1.000000000000000E+20
 30
1.000000000000000E+20
  9
$PEXTMAX
 10
-1.000000000000000E+20
 20
-1.000000000000000E+20
 30
-1.000000000000000E+20
  9
$PLIMMIN
 10
0.0
 20
0.0
  9
$PLIMMAX
 10
12.0
 20
9.0
  9
$UNITMODE
 70
     0
  9
$VISRETAIN
 70
     0
  9
$PLINEGEN
 70
     1
  9
$PSLTSCALE
 70
     0
  9
$TREEDEPTH
 70
  3020
  9
$CMLSTYLE
  2
Standard
  9
$CMLJUST
 70
     0
  9
$CMLSCALE
 40
1.0
  9
$PROXYGRAPHICS
 70
     0
  9
$MEASUREMENT
 70
     1
  9
$CELWEIGHT
370
     0
  9
$ENDCAPS
280
     0
  9
$JOINSTYLE
280
     0
  9
$LWDISPLAY
290
     1
  9
$INSUNITS
 70
     4
  9
$HYPERLINKBASE
  1

  9
$STYLESHEET
  1

  9
$XEDIT
290
     1
  9
$CEPSNTYPE
380
     0
  9
$PSTYLEMODE
290
     1
  9
$FINGERPRINTGUID
  2

  9
$VERSIONGUID
  2
{BFE08274-E1C7-40C9-8B51-AC3A6B50EEE9}
  9
$EXTNAMES
290
     1
  9
$PSVPSCALE
 40
0.0
  9
$OLESTARTUP
290
     0
  9
$SORTENTS
280
   127
  9
$INDEXCTL
280
     0
  9
$HIDETEXT
280
     0
  9
$XCLIPFRAME
290
     0
  9
$HALOGAP
280
     0
  9
$OBSCOLOR
 70
   257
  9
$OBSLTYPE
280
     0
  9
$INTERSECTIONDISPLAY
280
     0
  9
$INTERSECTIONCOLOR
 70
   257
  9
$DIMASSOC
280
     1
  9
$PROJECTNAME
  1

  0
ENDSEC
  0
SECTION
  2
CLASSES
  0
CLASS
  1
IMAGE
  2
AcDbRasterImage
  3
ISM
 90
      127
 91
        0
280
     0
281
     1
  0
CLASS
  1
DICTIONARYVAR
  2
AcDbDictionaryVar
  3
ObjectDBX Classes
 90
        0
 91
        2
280
     0
281
     0
  0
CLASS
  1
RASTERVARIABLES
  2
AcDbRasterVariables
  3
ISM
 90
        0
 91
        0
280
     0
281
     0
  0
CLASS
  1
IMAGEDEF
  2
AcDbRasterImageDef
  3
ISM
 90
        0
 91
        0
280
     0
281
     0
  0
CLASS
  1
IMAGEDEF_REACTOR
  2
AcDbRasterImageDefReactor
  3
ISM
 90
        1
 91
        0
280
     0
281
     0
  0
CLASS
  1
IDBUFFER
  2
AcDbIdBuffer
  3
ObjectDBX Classes
 90
        0
 91
        0
280
     0
281
     0
  0
CLASS
  1
SPATIAL_FILTER
  2
AcDbSpatialFilter
  3
ObjectDBX Classes
 90
        0
 91
        0
280
     0
281
     0
  0
CLASS
  1
SORTENTSTABLE
  2
AcDbSortentsTable
  3
ObjectDBX Classes
 90
        0
 91
        0
280
     0
281
     0
  0
CLASS
  1
LAYER_INDEX
  2
AcDbLayerIndex
  3
ObjectDBX Classes
 90
        0
 91
        0
280
     0
281
     0
  0
CLASS
  1
SPATIAL_INDEX
  2
AcDbSpatialIndex
  3
ObjectDBX Classes
 90
        0
 91
        0
280
     0
281
     0
  0
CLASS
  1
OBJECT_PTR
  2
CAseDLPNTableRecord
  3
"ASE-LPNTableRecord"
 90
        1
 91
        0
280
     0
281
     0
  0
CLASS
  1
PLOTSETTINGS
  2
AcDbPlotSettings
  3
ObjectDBX Classes
 90
        0
 91
        0
280
     0
281
     0
  0
CLASS
  1
ACDBDICTIONARYWDFLT
  2
AcDbDictionaryWithDefault
  3
ObjectDBX Classes
 90
        0
 91
        1
280
     0
281
     0
  0
CLASS
  1
WIPEOUT
  2
AcDbWipeout
  3
"WipeOut|Product Desc: Object Enabler for WipeOut entity^I^I^I^I^I^I|Company: Autodesk, Inc.^I^I^I^I^I^I|WEB Address: www.autodesk.com"
 90
      127
 91
       23
280
     0
281
     1
  0
CLASS
  1
WIPEOUTVARIABLES
  2
AcDbWipeoutVariables
  3
"WipeOut|Product Desc:     WipeOut Dbx Application|Company:          Autodesk, Inc.|WEB Address:      www.autodesk.com"
 90
        0
 91
        1
280
     0
281
     0
  0
CLASS
  1
RTEXT
  2
RText
  3
RText|AutoCAD Express Tool|expresstools@autodesk.com
 90
        0
 91
        0
280
     0
281
     1
  0
CLASS
  1
ARCALIGNEDTEXT
  2
AcDbArcAlignedText
  3
ATEXT|AutoCAD Express Tool|expresstools@autodesk.com
 90
        0
 91
        0
280
     0
281
     1
  0
ENDSEC
  0
SECTION
  2
TABLES
  0
TABLE
  2
VPORT
  5
7
330
0
100
AcDbSymbolTable
 70
     4
  0
VPORT
  5
198
330
7
100
AcDbSymbolTableRecord
100
AcDbViewportTableRecord
  2
*Active
 70
     0
 10
0.0
 20
0.0
 11
1.0
 21
1.0
 12
1588.231407913425
 22
1163.677067893164
 13
0.0
 23
0.0
 14
1.0
 24
1.0
 15
0.0
 25
0.0
 16
0.0
 26
0.0
 36
1.0
 17
0.0
 27
0.0
 37
0.0
 40
4037.626094705987
 41
1.672413793103448
 42
50.0
 43
0.0
 44
0.0
 50
0.0
 51
0.0
 71
     0
 72
   100
 73
     1
 74
     1
 75
     0
 76
     0
 77
     0
 78
     0
281
     0
 65
     0
110
0.0
120
0.0
130
0.0
111
1.0
121
0.0
131
0.0
112
0.0
122
1.0
132
0.0
 79
     0
146
0.0
  0
ENDTAB
  0
TABLE
  2
LTYPE
  5
4
330
0
100
AcDbSymbolTable
 70
    11
  0
LTYPE
  5
11
330
4
100
AcDbSymbolTableRecord
100
AcDbLinetypeTableRecord
  2
ByBlock
 70
     0
  3

 72
    65
 73
     0
 40
0.0
  0
LTYPE
  5
12
330
4
100
AcDbSymbolTableRecord
100
AcDbLinetypeTableRecord
  2
ByLayer
 70
     0
  3

 72
    65
 73
     0
 40
0.0
  0
LTYPE
  5
13
330
4
100
AcDbSymbolTableRecord
100
AcDbLinetypeTableRecord
  2
Continuous
 70
     0
  3
Solid line
 72
    65
 73
     0
 40
0.0
  0
LTYPE
  5
34
330
4
100
AcDbSymbolTableRecord
100
AcDbLinetypeTableRecord
  2
STYLE_01
 70
     0
  3

 72
    65
 73
     2
 40
0.4429133858267717
 49
0.2952755905511811
 74
     0
 49
-0.1476377952755906
 74
     0
  0
LTYPE
  5
35
330
4
100
AcDbSymbolTableRecord
100
AcDbLinetypeTableRecord
  2
STYLE_02
 70
     0
  3

 72
    65
 73
     2
 40
0.2214566929133859
 49
0.1476377952755906
 74
     0
 49
-0.0738188976377953
 74
     0
  0
LTYPE
  5
36
330
4
100
AcDbSymbolTableRecord
100
AcDbLinetypeTableRecord
  2
STYLE_03
 70
     0
  3

 72
    65
 73
     2
 40
0.1476377952755906
 49
0.0002
 74
     0
 49
-0.1474377952755906
 74
     0
  0
LTYPE
  5
37
330
4
100
AcDbSymbolTableRecord
100
AcDbLinetypeTableRecord
  2
STYLE_04
 70
     0
  3

 72
    65
 73
     4
 40
0.5905511811023623
 49
0.2952755905511811
 74
     0
 49
-0.1476377952755906
 74
     0
 49
0.0002
 74
     0
 49
-0.1474377952755906
 74
     0
  0
LTYPE
  5
38
330
4
100
AcDbSymbolTableRecord
100
AcDbLinetypeTableRecord
  2
STYLE_05
 70
     0
  3

 72
    65
 73
     6
 40
0.7381889763779528
 49
0.2952755905511811
 74
     0
 49
-0.1476377952755906
 74
     0
 49
0.0002
 74
     0
 49
-0.1474377952755906
 74
     0
 49
0.0002
 74
     0
 49
-0.1474377952755905
 74
     0
  0
LTYPE
  5
39
330
4
100
AcDbSymbolTableRecord
100
AcDbLinetypeTableRecord
  2
STYLE_06
 70
     0
  3

 72
    65
 73
     4
 40
0.4166560000000001
 49
0.25
 74
     0
 49
-0.083312
 74
     0
 49
0.027772
 74
     0
 49
-0.055572
 74
     0
  0
LTYPE
  5
3A
330
4
100
AcDbSymbolTableRecord
100
AcDbLinetypeTableRecord
  2
STYLE_07
 70
     0
  3

 72
    65
 73
     6
 40
0.75
 49
0.25
 74
     0
 49
-0.083312
 74
     0
 49
0.2500000000000001
 74
     0
 49
-0.083344
 74
     0
 49
0.027772
 74
     0
 49
-0.055572
 74
     0
  0
LTYPE
  5
3B
330
4
100
AcDbSymbolTableRecord
100
AcDbLinetypeTableRecord
  2
STYLE_08
 70
     0
  3

 72
    65
 73
     6
 40
0.5
 49
0.25
 74
     0
 49
-0.083312
 74
     0
 49
0.027772
 74
     0
 49
-0.055572
 74
     0
 49
0.027772
 74
     0
 49
-0.055572
 74
     0
  0
LTYPE
  5
3C
330
4
100
AcDbSymbolTableRecord
100
AcDbLinetypeTableRecord
  2
STYLE_09
 70
     0
  3

 72
    65
 73
     4
 40
2.0
 49
1.5
 74
     0
 49
-0.1111139999999999
 74
     0
 49
0.2777720000000001
 74
     0
 49
-0.1111139999999999
 74
     0
  0
LTYPE
  5
3D
330
4
100
AcDbSymbolTableRecord
100
AcDbLinetypeTableRecord
  2
STYLE_10
 70
     0
  3

 72
    65
 73
     6
 40
2.375
 49
1.5
 74
     0
 49
-0.1111139999999999
 74
     0
 49
0.2777720000000001
 74
     0
 49
-0.1111139999999999
 74
     0
 49
0.25
 74
     0
 49
-0.125
 74
     0
  0
ENDTAB
  0
TABLE
  2
LAYER
  5
2
102
{ACAD_XDICTIONARY
360
18C
102
}
330
0
100
AcDbSymbolTable
 70
     9
  0
LAYER
  5
14
330
2
100
AcDbSymbolTableRecord
100
AcDbLayerTableRecord
  2
0
 70
     0
 62
     7
  6
Continuous
370
    15
390
1D
  0
LAYER
  5
3E
330
2
100
AcDbSymbolTableRecord
100
AcDbLayerTableRecord
  2
Defpoints
 70
     0
 62
     7
  6
Continuous
290
     0
370
    -3
390
1D
  0
LAYER
  5
3F
330
2
100
AcDbSymbolTableRecord
100
AcDbLayerTableRecord
  2
一般
 70
     0
 62
     7
  6
Continuous
370
     5
390
1D
  0
LAYER
  5
40
330
2
100
AcDbSymbolTableRecord
100
AcDbLayerTableRecord
  2
寸法
 70
     0
 62
     7
  6
Continuous
370
     5
390
1D
  0
LAYER
  5
41
330
2
100
AcDbSymbolTableRecord
100
AcDbLayerTableRecord
  2
1
 70
     0
 62
     7
  6
Continuous
370
    15
390
1D
  0
LAYER
  5
42
330
2
100
AcDbSymbolTableRecord
100
AcDbLayerTableRecord
  2
17
 70
     0
 62
     7
  6
Continuous
370
    15
390
1D
  0
LAYER
  5
43
330
2
100
AcDbSymbolTableRecord
100
AcDbLayerTableRecord
  2
33
 70
     0
 62
     7
  6
Continuous
370
    15
390
1D
  0
LAYER
  5
44
330
2
100
AcDbSymbolTableRecord
100
AcDbLayerTableRecord
  2
49
 70
     0
 62
     7
  6
Continuous
370
    15
390
1D
  0
LAYER
  5
45
330
2
100
AcDbSymbolTableRecord
100
AcDbLayerTableRecord
  2
実形
 70
     0
 62
     7
  6
Continuous
370
    18
390
1D
  0
ENDTAB
  0
TABLE
  2
STYLE
  5
3
330
0
100
AcDbSymbolTable
 70
     3
  0
STYLE
  5
17
330
3
100
AcDbSymbolTableRecord
100
AcDbTextStyleTableRecord
  2
Standard
 70
     0
 40
0.0
 41
1.0
 50
0.0
 71
     0
 42
0.0
  3
txt
  4
BIGFONT.SHX
  0
STYLE
  5
32
330
3
100
AcDbSymbolTableRecord
100
AcDbTextStyleTableRecord
  2
Arial
 70
     0
 40
0.0
 41
1.0
 50
0.0
 71
     0
 42
0.0
  3
Arial
  4

1001
ACAD
1000
Arial
1071
        0
  0
STYLE
  5
33
330
3
100
AcDbSymbolTableRecord
100
AcDbTextStyleTableRecord
  2
ＭＳ ゴシック
 70
     0
 40
0.0
 41
1.0
 50
0.0
 71
     0
 42
0.0
  3
ＭＳ ゴシック
  4

1001
ACAD
1000
ＭＳ ゴシック
1071
        0
  0
ENDTAB
  0
TABLE
  2
VIEW
  5
5
330
0
100
AcDbSymbolTable
 70
     0
  0
ENDTAB
  0
TABLE
  2
UCS
  5
6
330
0
100
AcDbSymbolTable
 70
     0
  0
ENDTAB
  0
TABLE
  2
APPID
  5
8
330
0
100
AcDbSymbolTable
 70
     1
  0
APPID
  5
16
330
8
100
AcDbSymbolTableRecord
100
AcDbRegAppTableRecord
  2
ACAD
 70
     0
  0
ENDTAB
  0
TABLE
  2
DIMSTYLE
  5
9
330
0
100
AcDbSymbolTable
 70
     2
100
AcDbDimStyleTable
 71
     0
  0
DIMSTYLE
105
18
330
9
100
AcDbSymbolTableRecord
100
AcDbDimStyleTableRecord
  2
Standard
 70
     0
340
17
  0
DIMSTYLE
105
4F
102
{ACAD_REACTORS
330
114
330
115
330
116
330
117
330
118
330
119
330
11A
330
125
330
12D
330
137
330
138
330
13A
330
13B
330
13C
102
}
330
9
100
AcDbSymbolTableRecord
100
AcDbDimStyleTableRecord
  2
Arch
 70
     0
  3
<>
  4
[]
 41
22.4482421875
 42
15.875
 43
10.16
 44
31.75
 46
1.587499999999999
 73
     0
 74
     0
 77
     1
 78
    11
140
24.4326171875
141
0.0
143
0.0393700787401575
146
0.8
147
1.587499999999999
171
     3
172
     1
174
     1
179
     2
271
     1
272
     1
273
     4
276
     2
284
    11
285
    15
286
    15
340
33
341
4B
342
46
  0
ENDTAB
  0
TABLE
  2
BLOCK_RECORD
  5
1
330
0
100
AcDbSymbolTable
 70
    17
  0
BLOCK_RECORD
  5
A
330
1
100
AcDbSymbolTableRecord
100
AcDbBlockTableRecord
  2
*MODEL_SPACE
340
20
  0
BLOCK_RECORD
  5
B
330
1
100
AcDbSymbolTableRecord
100
AcDbBlockTableRecord
  2
*PAPER_SPACE
340
21
  0
BLOCK_RECORD
  5
46
330
1
100
AcDbSymbolTableRecord
100
AcDbBlockTableRecord
  2
VW_SLASH
340
0
  0
BLOCK_RECORD
  5
4B
330
1
100
AcDbSymbolTableRecord
100
AcDbBlockTableRecord
  2
VW_FILLEDARROW
340
0
  0
BLOCK_RECORD
  5
24
330
1
100
AcDbSymbolTableRecord
100
AcDbBlockTableRecord
  2
*D2
340
0
  0
BLOCK_RECORD
  5
25
330
1
100
AcDbSymbolTableRecord
100
AcDbBlockTableRecord
  2
*D3
340
0
  0
BLOCK_RECORD
  5
26
330
1
100
AcDbSymbolTableRecord
100
AcDbBlockTableRecord
  2
*D4
340
0
  0
BLOCK_RECORD
  5
27
330
1
100
AcDbSymbolTableRecord
100
AcDbBlockTableRecord
  2
*D5
340
0
  0
BLOCK_RECORD
  5
28
330
1
100
AcDbSymbolTableRecord
100
AcDbBlockTableRecord
  2
*D6
340
0
  0
BLOCK_RECORD
  5
29
330
1
100
AcDbSymbolTableRecord
100
AcDbBlockTableRecord
  2
*D7
340
0
  0
BLOCK_RECORD
  5
2A
330
1
100
AcDbSymbolTableRecord
100
AcDbBlockTableRecord
  2
*D8
340
0
  0
BLOCK_RECORD
  5
2B
330
1
100
AcDbSymbolTableRecord
100
AcDbBlockTableRecord
  2
*D9
340
0
  0
BLOCK_RECORD
  5
2C
330
1
100
AcDbSymbolTableRecord
100
AcDbBlockTableRecord
  2
*D10
340
0
  0
BLOCK_RECORD
  5
2D
330
1
100
AcDbSymbolTableRecord
100
AcDbBlockTableRecord
  2
*D11
340
0
  0
BLOCK_RECORD
  5
2E
330
1
100
AcDbSymbolTableRecord
100
AcDbBlockTableRecord
  2
*D12
340
0
  0
BLOCK_RECORD
  5
2F
330
1
100
AcDbSymbolTableRecord
100
AcDbBlockTableRecord
  2
*D13
340
0
  0
BLOCK_RECORD
  5
30
330
1
100
AcDbSymbolTableRecord
100
AcDbBlockTableRecord
  2
*D14
340
0
  0
BLOCK_RECORD
  5
31
330
1
100
AcDbSymbolTableRecord
100
AcDbBlockTableRecord
  2
*D15
340
0
  0
ENDTAB
  0
ENDSEC
  0
SECTION
  2
BLOCKS
  0
BLOCK
  5
D
330
A
100
AcDbEntity
  8
0
100
AcDbBlockBegin
  2
*MODEL_SPACE
 70
     0
 10
0.0
 20
0.0
 30
0.0
  3
*MODEL_SPACE
  1

  0
ENDBLK
  5
E
330
A
100
AcDbEntity
  8
0
100
AcDbBlockEnd
  0
BLOCK
  5
F
330
B
100
AcDbEntity
 67
     1
  8
0
100
AcDbBlockBegin
  2
*PAPER_SPACE
 70
     0
 10
0.0
 20
0.0
 30
0.0
  3
*PAPER_SPACE
  1

  0
ENDBLK
  5
10
330
B
100
AcDbEntity
 67
     1
  8
0
100
AcDbBlockEnd
  0
BLOCK
  5
47
330
46
100
AcDbEntity
  8
0
  6
ByBlock
 62
     0
370
    -2
100
AcDbBlockBegin
  2
VW_SLASH
 70
     0
 10
0.0
 20
0.0
 30
0.0
  3
VW_SLASH
  1

  0
LINE
  5
48
330
46
100
AcDbEntity
  8
0
  6
ByBlock
 62
     0
370
    -2
100
AcDbLine
 10
0.0
 20
0.0
 30
0.0
 11
-1.0
 21
0.0
 31
0.0
  0
LINE
  5
49
330
46
100
AcDbEntity
  8
0
  6
ByBlock
 62
     0
370
    20
100
AcDbLine
 10
0.4987813153181721
 20
0.4987813153181721
 30
0.0
 11
-0.4987813153181721
 21
-0.4987813153181721
 31
0.0
  0
ENDBLK
  5
4A
330
46
100
AcDbEntity
  8
0
100
AcDbBlockEnd
  0
BLOCK
  5
4C
330
4B
100
AcDbEntity
  8
0
  6
ByBlock
 62
     0
370
    -2
100
AcDbBlockBegin
  2
VW_FILLEDARROW
 70
     0
 10
0.0
 20
0.0
 30
0.0
  3
VW_FILLEDARROW
  1

  0
SOLID
  5
4D
330
4B
100
AcDbEntity
  8
0
 62
     0
370
    -2
100
AcDbTrace
 10
0.0
 20
0.0
 30
0.0
 11
1.4107666015625
 21
0.3780137715974713
 31
0.0
 12
1.4107666015625
 22
-0.3780137715974713
 32
0.0
 13
1.4107666015625
 23
-0.3780137715974713
 33
0.0
  0
ENDBLK
  5
4E
330
4B
100
AcDbEntity
  8
0
100
AcDbBlockEnd
  0
BLOCK
  5
50
330
24
100
AcDbEntity
  8
寸法
100
AcDbBlockBegin
  2
*D2
 70
     1
 10
0.0
 20
0.0
 30
0.0
  3
*D2
  1

  0
LINE
  5
51
330
24
100
AcDbEntity
  8
寸法
  6
Continuous
 62
     0
370
    -2
100
AcDbLine
 10
60.0
 20
1140.875
 30
0.0
 11
60.0
 21
1549.13787472012
 31
0.0
  0
LINE
  5
52
330
24
100
AcDbEntity
  8
寸法
  6
Continuous
 62
     0
370
    -2
100
AcDbLine
 10
1080.0
 20
1140.875
 30
0.0
 11
1080.0
 21
1549.13787472012
 31
0.0
  0
LINE
  5
53
330
24
100
AcDbEntity
  8
寸法
  6
Continuous
 62
     0
370
    -2
100
AcDbLine
 10
44.125
 20
1517.38787472012
 30
0.0
 11
60.0
 21
1517.38787472012
 31
0.0
  0
LINE
  5
54
330
24
100
AcDbEntity
  8
寸法
  6
Continuous
 62
     0
370
    -2
100
AcDbLine
 10
1080.0
 20
1517.38787472012
 30
0.0
 11
1095.875
 21
1517.38787472012
 31
0.0
  0
LINE
  5
55
330
24
100
AcDbEntity
  8
寸法
  6
Continuous
 62
     0
370
    -2
100
AcDbLine
 10
60.0
 20
1517.38787472012
 30
0.0
 11
1080.0
 21
1517.38787472012
 31
0.0
  0
LINE
  5
56
330
24
100
AcDbEntity
  8
寸法
  6
Continuous
 62
     0
370
    20
100
AcDbLine
 10
71.22532015133652
 20
1528.613194871456
 30
0.0
 11
48.77467984866347
 21
1506.162554568784
 31
0.0
  0
LINE
  5
57
330
24
100
AcDbEntity
  8
寸法
  6
Continuous
 62
     0
370
    20
100
AcDbLine
 10
1068.774679848663
 20
1506.162554568784
 30
0.0
 11
1091.225320151336
 21
1528.613194871456
 31
0.0
  0
WIPEOUT
  5
58
330
24
100
AcDbEntity
  8
寸法
  6
Continuous
 62
     0
 92
      276
310
1401000003000000800000000A0000000000000000D2804071D7072F0DF59740000000000000000000000000000000000000000000000000000000000000F03F000000000000F03F000000000000000000000000000000000000000000000000000000000000F03F000000000000000041634462576970656F757420285769
310
70654F7574290000008400000006000000050000000000000000D2804071D7072F0DF5974000000000000000000000000000CE824071D7072F0DF5974000000000000000000000000000CE824071D7072F0D74984000000000000000000000000000D2804071D7072F0D74984000000000000000000000000000D2804071D7
310
072F0DF5974000000000000000000800000015000000
370
    -2
100
AcDbWipeout
 90
        0
 10
538.25
 20
1894.402554942768
 30
0.0
 11
63.5
 21
0.0
 31
0.0
 12
0.0
 22
63.5
 32
0.0
 13
1.0
 23
1.0
340
0
 70
     7
280
     1
281
    50
282
    50
283
     0
360
0
 71
     2
 91
        5
 14
-0.5
 24
6.187239058624376
 14
0.5
 24
6.187239058624376
 14
0.5
 24
5.687239058624376
 14
-0.5
 24
5.687239058624376
 14
-0.5
 24
6.187239058624376
  0
MTEXT
  5
59
330
24
100
AcDbEntity
  8
寸法
 62
     0
100
AcDbMText
 10
538.25
 20
1562.14049190762
 30
0.0
 40
24.4326171875
 41
0.0
 71
     1
 72
     1
  1
1020
  7
ＭＳ ゴシック
 73
     1
 44
0.7828267384257845
1001
ACAD
1000
MTEXTBEGIN
1070
    73
1070
     1
1070
    44
1040
0.7828267384257845
1070
    74
1070
     0
1000
MTEXTEND
  0
POINT
  5
5A
330
24
100
AcDbEntity
  8
Defpoints
 62
     0
370
     0
100
AcDbPoint
 10
1080.0
 20
1125.0
 30
0.0
  0
POINT
  5
5B
330
24
100
AcDbEntity
  8
Defpoints
 62
     0
370
     0
100
AcDbPoint
 10
60.0
 20
1125.0
 30
0.0
  0
POINT
  5
5C
330
24
100
AcDbEntity
  8
Defpoints
 62
     0
370
     0
100
AcDbPoint
 10
60.0
 20
1517.38787472012
 30
0.0
  0
ENDBLK
  5
5D
330
24
100
AcDbEntity
  8
寸法
100
AcDbBlockEnd
  0
BLOCK
  5
5E
330
25
100
AcDbEntity
  8
寸法
100
AcDbBlockBegin
  2
*D3
 70
     1
 10
0.0
 20
0.0
 30
0.0
  3
*D3
  1

  0
LINE
  5
5F
330
25
100
AcDbEntity
  8
寸法
  6
Continuous
 62
     0
370
    -2
100
AcDbLine
 10
75.0
 20
1085.875
 30
0.0
 11
75.0
 21
1496.75
 31
0.0
  0
LINE
  5
60
330
25
100
AcDbEntity
  8
寸法
  6
Continuous
 62
     0
370
    -2
100
AcDbLine
 10
1065.0
 20
1085.875
 30
0.0
 11
1065.0
 21
1496.75
 31
0.0
  0
LINE
  5
61
330
25
100
AcDbEntity
  8
寸法
  6
Continuous
 62
     0
370
    -2
100
AcDbLine
 10
59.125
 20
1465.0
 30
0.0
 11
75.0
 21
1465.0
 31
0.0
  0
LINE
  5
62
330
25
100
AcDbEntity
  8
寸法
  6
Continuous
 62
     0
370
    -2
100
AcDbLine
 10
1065.0
 20
1465.0
 30
0.0
 11
1080.875
 21
1465.0
 31
0.0
  0
LINE
  5
63
330
25
100
AcDbEntity
  8
寸法
  6
Continuous
 62
     0
370
    -2
100
AcDbLine
 10
75.0
 20
1465.0
 30
0.0
 11
1065.0
 21
1465.0
 31
0.0
  0
LINE
  5
64
330
25
100
AcDbEntity
  8
寸法
  6
Continuous
 62
     0
370
    20
100
AcDbLine
 10
86.22532015133641
 20
1476.225320151336
 30
0.0
 11
63.77467984866347
 21
1453.774679848663
 31
0.0
  0
LINE
  5
65
330
25
100
AcDbEntity
  8
寸法
  6
Continuous
 62
     0
370
    20
100
AcDbLine
 10
1053.774679848664
 20
1453.774679848663
 30
0.0
 11
1076.225320151336
 21
1476.225320151336
 31
0.0
  0
WIPEOUT
  5
66
330
25
100
AcDbEntity
  8
寸法
  6
Continuous
 62
     0
 92
      276
310
1401000003000000800000000A000000E4381EFF7F1181400000000080239740000000000000000000000000000000000000000000000000000000000000F03F000000000000F03F000000000000000000000000000000000000000000000000000000000000F03F000000000000000041634462576970656F757420285769
310
70654F757429000000840000000600000005000000E4381EFF7F118140000000008023974000000000000000001CC7E100808E8240000000008023974000000000000000001CC7E100808E82400000000080A297400000000000000000E4381EFF7F1181400000000080A297400000000000000000E4381EFF7F1181400000
310
00008023974000000000000000000800000015000000
370
    -2
100
AcDbWipeout
 90
        0
 10
546.1874983178245
 20
1842.014680222648
 30
0.0
 11
47.62500336435107
 21
0.0
 31
0.0
 12
0.0
 22
47.62500336435107
 32
0.0
 13
1.0
 23
1.0
340
0
 70
     7
280
     1
281
    50
282
    50
283
     0
360
0
 71
     2
 91
        5
 14
-0.5
 24
8.082984875817842
 14
0.5
 24
8.082984875817842
 14
0.5
 24
7.416318256246201
 14
-0.5
 24
7.416318256246201
 14
-0.5
 24
8.082984875817842
  0
MTEXT
  5
67
330
25
100
AcDbEntity
  8
寸法
 62
     0
100
AcDbMText
 10
546.1874983178245
 20
1509.7526171875
 30
0.0
 40
24.4326171875
 41
0.0
 71
     1
 72
     1
  1
990
  7
ＭＳ ゴシック
 73
     1
 44
0.7828267384257845
1001
ACAD
1000
MTEXTBEGIN
1070
    73
1070
     1
1070
    44
1040
0.7828267384257845
1070
    74
1070
     0
1000
MTEXTEND
  0
POINT
  5
68
330
25
100
AcDbEntity
  8
Defpoints
 62
     0
370
     0
100
AcDbPoint
 10
1065.0
 20
1070.0
 30
0.0
  0
POINT
  5
69
330
25
100
AcDbEntity
  8
Defpoints
 62
     0
370
     0
100
AcDbPoint
 10
75.0
 20
1070.0
 30
0.0
  0
POINT
  5
6A
330
25
100
AcDbEntity
  8
Defpoints
 62
     0
370
     0
100
AcDbPoint
 10
75.0
 20
1465.0
 30
0.0
  0
ENDBLK
  5
6B
330
25
100
AcDbEntity
  8
寸法
100
AcDbBlockEnd
  0
BLOCK
  5
6C
330
26
100
AcDbEntity
  8
寸法
100
AcDbBlockBegin
  2
*D4
 70
     1
 10
0.0
 20
0.0
 30
0.0
  3
*D4
  1

  0
LINE
  5
6D
330
26
100
AcDbEntity
  8
寸法
  6
Continuous
 62
     0
370
    -2
100
AcDbLine
 10
95.0
 20
1055.875
 30
0.0
 11
95.0
 21
1446.75
 31
0.0
  0
LINE
  5
6E
330
26
100
AcDbEntity
  8
寸法
  6
Continuous
 62
     0
370
    -2
100
AcDbLine
 10
1045.0
 20
1055.875
 30
0.0
 11
1045.0
 21
1446.75
 31
0.0
  0
LINE
  5
6F
330
26
100
AcDbEntity
  8
寸法
  6
Continuous
 62
     0
370
    -2
100
AcDbLine
 10
79.125
 20
1415.0
 30
0.0
 11
95.0
 21
1415.0
 31
0.0
  0
LINE
  5
70
330
26
100
AcDbEntity
  8
寸法
  6
Continuous
 62
     0
370
    -2
100
AcDbLine
 10
1045.0
 20
1415.0
 30
0.0
 11
1060.875
 21
1415.0
 31
0.0
  0
LINE
  5
71
330
26
100
AcDbEntity
  8
寸法
  6
Continuous
 62
     0
370
    -2
100
AcDbLine
 10
95.0
 20
1415.0
 30
0.0
 11
1045.0
 21
1415.0
 31
0.0
  0
LINE
  5
72
330
26
100
AcDbEntity
  8
寸法
  6
Continuous
 62
     0
370
    20
100
AcDbLine
 10
106.2253201513364
 20
1426.225320151336
 30
0.0
 11
83.77467984866358
 21
1403.774679848664
 31
0.0
  0
LINE
  5
73
330
26
100
AcDbEntity
  8
寸法
  6
Continuous
 62
     0
370
    20
100
AcDbLine
 10
1033.774679848664
 20
1403.774679848664
 30
0.0
 11
1056.225320151336
 21
1426.225320151336
 31
0.0
  0
WIPEOUT
  5
74
330
26
100
AcDbEntity
  8
寸法
  6
Continuous
 62
     0
 92
      276
310
1401000003000000800000000A000000E4381EFF7F11814000000000805B9640000000000000000000000000000000000000000000000000000000000000F03F000000000000F03F000000000000000000000000000000000000000000000000000000000000F03F000000000000000041634462576970656F757420285769
310
70654F757429000000840000000600000005000000E4381EFF7F11814000000000805B964000000000000000001CC7E100808E824000000000805B964000000000000000001CC7E100808E82400000000080DA96400000000000000000E4381EFF7F1181400000000080DA96400000000000000000E4381EFF7F1181400000
310
0000805B964000000000000000000800000015000000
370
    -2
100
AcDbWipeout
 90
        0
 10
546.1874983178245
 20
1792.014680222648
 30
0.0
 11
47.62500336435107
 21
0.0
 31
0.0
 12
0.0
 22
47.62500336435107
 32
0.0
 13
1.0
 23
1.0
340
0
 70
     7
280
     1
281
    50
282
    50
283
     0
360
0
 71
     2
 91
        5
 14
-0.5
 24
8.082984875817842
 14
0.5
 24
8.082984875817842
 14
0.5
 24
7.416318256246201
 14
-0.5
 24
7.416318256246201
 14
-0.5
 24
8.082984875817842
  0
MTEXT
  5
75
330
26
100
AcDbEntity
  8
寸法
 62
     0
100
AcDbMText
 10
546.1874983178245
 20
1459.7526171875
 30
0.0
 40
24.4326171875
 41
0.0
 71
     1
 72
     1
  1
950
  7
ＭＳ ゴシック
 73
     1
 44
0.7828267384257845
1001
ACAD
1000
MTEXTBEGIN
1070
    73
1070
     1
1070
    44
1040
0.7828267384257845
1070
    74
1070
     0
1000
MTEXTEND
  0
POINT
  5
76
330
26
100
AcDbEntity
  8
Defpoints
 62
     0
370
     0
100
AcDbPoint
 10
1045.0
 20
1040.0
 30
0.0
  0
POINT
  5
77
330
26
100
AcDbEntity
  8
Defpoints
 62
     0
370
     0
100
AcDbPoint
 10
95.0
 20
1040.0
 30
0.0
  0
POINT
  5
78
330
26
100
AcDbEntity
  8
Defpoints
 62
     0
370
     0
100
AcDbPoint
 10
95.0
 20
1415.0
 30
0.0
  0
ENDBLK
  5
79
330
26
100
AcDbEntity
  8
寸法
100
AcDbBlockEnd
  0
BLOCK
  5
7A
330
27
100
AcDbEntity
  8
寸法
100
AcDbBlockBegin
  2
*D5
 70
     1
 10
0.0
 20
0.0
 30
0.0
  3
*D5
  1

  0
LINE
  5
7B
330
27
100
AcDbEntity
  8
寸法
  6
Continuous
 62
     0
370
    -2
100
AcDbLine
 10
154.125
 20
1190.0
 30
0.0
 11
-216.75
 21
1190.0
 31
0.0
  0
LINE
  5
7C
330
27
100
AcDbEntity
  8
寸法
  6
Continuous
 62
     0
370
    -2
100
AcDbLine
 10
154.125
 20
718.0
 30
0.0
 11
-216.75
 21
718.0
 31
0.0
  0
LINE
  5
7D
330
27
100
AcDbEntity
  8
寸法
  6
Continuous
 62
     0
370
    -2
100
AcDbLine
 10
-185.0
 20
1205.875
 30
0.0
 11
-185.0
 21
1190.0
 31
0.0
  0
LINE
  5
7E
330
27
100
AcDbEntity
  8
寸法
  6
Continuous
 62
     0
370
    -2
100
AcDbLine
 10
-185.0
 20
718.0
 30
0.0
 11
-185.0
 21
702.125
 31
0.0
  0
LINE
  5
7F
330
27
100
AcDbEntity
  8
寸法
  6
Continuous
 62
     0
370
    -2
100
AcDbLine
 10
-185.0
 20
1190.0
 30
0.0
 11
-185.0
 21
718.0
 31
0.0
  0
LINE
  5
80
330
27
100
AcDbEntity
  8
寸法
  6
Continuous
 62
     0
370
    20
100
AcDbLine
 10
-173.7746798486635
 20
1178.774679848663
 30
0.0
 11
-196.2253201513365
 21
1201.225320151336
 31
0.0
  0
LINE
  5
81
330
27
100
AcDbEntity
  8
寸法
  6
Continuous
 62
     0
370
    20
100
AcDbLine
 10
-196.2253201513365
 20
729.2253201513362
 30
0.0
 11
-173.7746798486635
 21
706.7746798486636
 31
0.0
  0
WIPEOUT
  5
82
330
27
100
AcDbEntity
  8
寸法
  6
Continuous
 62
     0
 92
      276
310
1401000003000000800000000A0000000000000000146DC0E2381EFF7F118D40000000000000000000000000000000000000000000000000000000000000F03F000000000000F03F000000000000000000000000000000000000000000000000000000000000F03F000000000000000041634462576970656F757420285769
310
70654F7574290000008400000006000000050000000000000000146DC0E2381EFF7F118D40000000000000000000000000001C69C0E2381EFF7F118D40000000000000000000000000001C69C01AC7E100808E8E4000000000000000000000000000146DC01AC7E100808E8E4000000000000000000000000000146DC0E238
310
1EFF7F118D4000000000000000000800000015000000
370
    -2
100
AcDbWipeout
 90
        0
 10
-232.625
 20
1291.327178540472
 30
0.0
 11
47.62500336435107
 21
0.0
 31
0.0
 12
0.0
 22
47.62500336435107
 32
0.0
 13
1.0
 23
1.0
340
0
 70
     7
280
     1
281
    50
282
    50
283
     0
360
0
 71
     2
 91
        5
 14
0.1666666195716419
 24
8.082984875817837
 14
0.1666666195716419
 24
7.082984875817841
 14
-0.5
 24
7.082984875817841
 14
-0.5
 24
8.082984875817837
 14
0.1666666195716419
 24
8.082984875817837
  0
MTEXT
  5
83
330
27
100
AcDbEntity
  8
寸法
 62
     0
100
AcDbMText
 10
-229.7526171874999
 20
930.1874983178244
 30
0.0
 40
24.4326171875
 41
0.0
 71
     1
 72
     1
  1
472
  7
ＭＳ ゴシック
 11
0.0
 21
1.0
 31
0.0
 73
     1
 44
0.7828267384257845
1001
ACAD
1000
MTEXTBEGIN
1070
    73
1070
     1
1070
    44
1040
0.7828267384257845
1070
    74
1070
     0
1000
MTEXTEND
  0
POINT
  5
84
330
27
100
AcDbEntity
  8
Defpoints
 62
     0
370
     0
100
AcDbPoint
 10
170.0
 20
718.0
 30
0.0
  0
POINT
  5
85
330
27
100
AcDbEntity
  8
Defpoints
 62
     0
370
     0
100
AcDbPoint
 10
170.0
 20
1190.0
 30
0.0
  0
POINT
  5
86
330
27
100
AcDbEntity
  8
Defpoints
 62
     0
370
     0
100
AcDbPoint
 10
-185.0
 20
1190.0
 30
0.0
  0
ENDBLK
  5
87
330
27
100
AcDbEntity
  8
寸法
100
AcDbBlockEnd
  0
BLOCK
  5
88
330
28
100
AcDbEntity
  8
寸法
100
AcDbBlockBegin
  2
*D6
 70
     1
 10
0.0
 20
0.0
 30
0.0
  3
*D6
  1

  0
LINE
  5
89
330
28
100
AcDbEntity
  8
寸法
  6
Continuous
 62
     0
370
    -2
100
AcDbLine
 10
219.125
 20
1175.0
 30
0.0
 11
-166.75
 21
1175.0
 31
0.0
  0
LINE
  5
8A
330
28
100
AcDbEntity
  8
寸法
  6
Continuous
 62
     0
370
    -2
100
AcDbLine
 10
219.125
 20
733.0
 30
0.0
 11
-166.75
 21
733.0
 31
0.0
  0
LINE
  5
8B
330
28
100
AcDbEntity
  8
寸法
  6
Continuous
 62
     0
370
    -2
100
AcDbLine
 10
-135.0
 20
1190.875
 30
0.0
 11
-135.0
 21
1175.0
 31
0.0
  0
LINE
  5
8C
330
28
100
AcDbEntity
  8
寸法
  6
Continuous
 62
     0
370
    -2
100
AcDbLine
 10
-135.0
 20
733.0
 30
0.0
 11
-135.0
 21
717.125
 31
0.0
  0
LINE
  5
8D
330
28
100
AcDbEntity
  8
寸法
  6
Continuous
 62
     0
370
    -2
100
AcDbLine
 10
-135.0
 20
1175.0
 30
0.0
 11
-135.0
 21
733.0
 31
0.0
  0
LINE
  5
8E
330
28
100
AcDbEntity
  8
寸法
  6
Continuous
 62
     0
370
    20
100
AcDbLine
 10
-123.7746798486635
 20
1163.774679848663
 30
0.0
 11
-146.2253201513365
 21
1186.225320151336
 31
0.0
  0
LINE
  5
8F
330
28
100
AcDbEntity
  8
寸法
  6
Continuous
 62
     0
370
    20
100
AcDbLine
 10
-146.2253201513365
 20
744.2253201513364
 30
0.0
 11
-123.7746798486635
 21
721.7746798486635
 31
0.0
  0
WIPEOUT
  5
90
330
28
100
AcDbEntity
  8
寸法
  6
Continuous
 62
     0
 92
      276
310
1401000003000000800000000A0000000000000000D466C0E2381EFF7F118D40000000000000000000000000000000000000000000000000000000000000F03F000000000000F03F000000000000000000000000000000000000000000000000000000000000F03F000000000000000041634462576970656F757420285769
310
70654F7574290000008400000006000000050000000000000000D466C0E2381EFF7F118D4000000000000000000000000000DC62C0E2381EFF7F118D4000000000000000000000000000DC62C01AC7E100808E8E4000000000000000000000000000D466C01AC7E100808E8E4000000000000000000000000000D466C0E238
310
1EFF7F118D4000000000000000000800000015000000
370
    -2
100
AcDbWipeout
 90
        0
 10
-182.625
 20
1291.327178540472
 30
0.0
 11
47.62500336435107
 21
0.0
 31
0.0
 12
0.0
 22
47.62500336435107
 32
0.0
 13
1.0
 23
1.0
340
0
 70
     7
280
     1
281
    50
282
    50
283
     0
360
0
 71
     2
 91
        5
 14
0.1666666195716419
 24
8.082984875817837
 14
0.1666666195716419
 24
7.082984875817841
 14
-0.5
 24
7.082984875817841
 14
-0.5
 24
8.082984875817837
 14
0.1666666195716419
 24
8.082984875817837
  0
MTEXT
  5
91
330
28
100
AcDbEntity
  8
寸法
 62
     0
100
AcDbMText
 10
-179.7526171874999
 20
930.1874983178244
 30
0.0
 40
24.4326171875
 41
0.0
 71
     1
 72
     1
  1
442
  7
ＭＳ ゴシック
 11
0.0
 21
1.0
 31
0.0
 73
     1
 44
0.7828267384257845
1001
ACAD
1000
MTEXTBEGIN
1070
    73
1070
     1
1070
    44
1040
0.7828267384257845
1070
    74
1070
     0
1000
MTEXTEND
  0
POINT
  5
92
330
28
100
AcDbEntity
  8
Defpoints
 62
     0
370
     0
100
AcDbPoint
 10
235.0
 20
733.0
 30
0.0
  0
POINT
  5
93
330
28
100
AcDbEntity
  8
Defpoints
 62
     0
370
     0
100
AcDbPoint
 10
235.0
 20
1175.0
 30
0.0
  0
POINT
  5
94
330
28
100
AcDbEntity
  8
Defpoints
 62
     0
370
     0
100
AcDbPoint
 10
-135.0
 20
1175.0
 30
0.0
  0
ENDBLK
  5
95
330
28
100
AcDbEntity
  8
寸法
100
AcDbBlockEnd
  0
BLOCK
  5
96
330
29
100
AcDbEntity
  8
寸法
100
AcDbBlockBegin
  2
*D7
 70
     1
 10
0.0
 20
0.0
 30
0.0
  3
*D7
  1

  0
LINE
  5
97
330
29
100
AcDbEntity
  8
寸法
  6
Continuous
 62
     0
370
    -2
100
AcDbLine
 10
224.186660225781
 20
1155.0
 30
0.0
 11
-111.688339774219
 21
1155.0
 31
0.0
  0
LINE
  5
98
330
29
100
AcDbEntity
  8
寸法
  6
Continuous
 62
     0
370
    -2
100
AcDbLine
 10
224.186660225781
 20
753.0
 30
0.0
 11
-111.688339774219
 21
753.0
 31
0.0
  0
LINE
  5
99
330
29
100
AcDbEntity
  8
寸法
  6
Continuous
 62
     0
370
    -2
100
AcDbLine
 10
-79.93833977421902
 20
1170.875
 30
0.0
 11
-79.93833977421902
 21
1155.0
 31
0.0
  0
LINE
  5
9A
330
29
100
AcDbEntity
  8
寸法
  6
Continuous
 62
     0
370
    -2
100
AcDbLine
 10
-79.93833977421902
 20
753.0
 30
0.0
 11
-79.93833977421902
 21
737.1249999999998
 31
0.0
  0
LINE
  5
9B
330
29
100
AcDbEntity
  8
寸法
  6
Continuous
 62
     0
370
    -2
100
AcDbLine
 10
-79.93833977421902
 20
1155.0
 30
0.0
 11
-79.93833977421902
 21
753.0
 31
0.0
  0
LINE
  5
9C
330
29
100
AcDbEntity
  8
寸法
  6
Continuous
 62
     0
370
    20
100
AcDbLine
 10
-68.71301962288248
 20
1143.774679848663
 30
0.0
 11
-91.16365992555552
 21
1166.225320151336
 31
0.0
  0
LINE
  5
9D
330
29
100
AcDbEntity
  8
寸法
  6
Continuous
 62
     0
370
    20
100
AcDbLine
 10
-91.16365992555552
 20
764.2253201513364
 30
0.0
 11
-68.71301962288248
 21
741.7746798486636
 31
0.0
  0
WIPEOUT
  5
9E
330
29
100
AcDbEntity
  8
寸法
  6
Continuous
 62
     0
 92
      276
310
1401000003000000800000000A000000A0B344C20DE45FC0E2381EFF7F118D40000000000000000000000000000000000000000000000000000000000000F03F000000000000F03F000000000000000000000000000000000000000000000000000000000000F03F000000000000000041634462576970656F757420285769
310
70654F757429000000840000000600000005000000A0B344C20DE45FC0E2381EFF7F118D400000000000000000A0B344C20DF457C0E2381EFF7F118D400000000000000000A0B344C20DF457C01AC7E100808E8E400000000000000000A0B344C20DE45FC01AC7E100808E8E400000000000000000A0B344C20DE45FC0E238
310
1EFF7F118D4000000000000000000800000015000000
370
    -2
100
AcDbWipeout
 90
        0
 10
-127.563339774219
 20
1291.327178540472
 30
0.0
 11
47.62500336435107
 21
0.0
 31
0.0
 12
0.0
 22
47.62500336435107
 32
0.0
 13
1.0
 23
1.0
340
0
 70
     7
280
     1
281
    50
282
    50
283
     0
360
0
 71
     2
 91
        5
 14
0.1666666195716419
 24
8.082984875817837
 14
0.1666666195716419
 24
7.082984875817841
 14
-0.5
 24
7.082984875817841
 14
-0.5
 24
8.082984875817837
 14
0.1666666195716419
 24
8.082984875817837
  0
MTEXT
  5
9F
330
29
100
AcDbEntity
  8
寸法
 62
     0
100
AcDbMText
 10
-124.6909569617189
 20
930.1874983178244
 30
0.0
 40
24.4326171875
 41
0.0
 71
     1
 72
     1
  1
402
  7
ＭＳ ゴシック
 11
0.0
 21
1.0
 31
0.0
 73
     1
 44
0.7828267384257845
1001
ACAD
1000
MTEXTBEGIN
1070
    73
1070
     1
1070
    44
1040
0.7828267384257845
1070
    74
1070
     0
1000
MTEXTEND
  0
POINT
  5
A0
330
29
100
AcDbEntity
  8
Defpoints
 62
     0
370
     0
100
AcDbPoint
 10
240.061660225781
 20
753.0
 30
0.0
  0
POINT
  5
A1
330
29
100
AcDbEntity
  8
Defpoints
 62
     0
370
     0
100
AcDbPoint
 10
240.061660225781
 20
1155.0
 30
0.0
  0
POINT
  5
A2
330
29
100
AcDbEntity
  8
Defpoints
 62
     0
370
     0
100
AcDbPoint
 10
-79.93833977421902
 20
1155.0
 30
0.0
  0
ENDBLK
  5
A3
330
29
100
AcDbEntity
  8
寸法
100
AcDbBlockEnd
  0
BLOCK
  5
A4
330
2A
100
AcDbEntity
  8
寸法
100
AcDbBlockBegin
  2
*D8
 70
     1
 10
0.0
 20
0.0
 30
0.0
  3
*D8
  1

  0
LINE
  5
A5
330
2A
100
AcDbEntity
  8
寸法
  6
Continuous
 62
     0
370
    -2
100
AcDbLine
 10
722.7738127986352
 20
1190.0
 30
0.0
 11
758.6488127986353
 21
1190.0
 31
0.0
  0
LINE
  5
A6
330
2A
100
AcDbEntity
  8
寸法
  6
Continuous
 62
     0
370
    -2
100
AcDbLine
 10
722.7738127986352
 20
1015.0
 30
0.0
 11
758.6488127986353
 21
1015.0
 31
0.0
  0
LINE
  5
A7
330
2A
100
AcDbEntity
  8
寸法
  6
Continuous
 62
     0
370
    -2
100
AcDbLine
 10
726.8988127986353
 20
1205.875
 30
0.0
 11
726.8988127986353
 21
1190.0
 31
0.0
  0
LINE
  5
A8
330
2A
100
AcDbEntity
  8
寸法
  6
Continuous
 62
     0
370
    -2
100
AcDbLine
 10
726.8988127986353
 20
1015.0
 30
0.0
 11
726.8988127986353
 21
999.125
 31
0.0
  0
LINE
  5
A9
330
2A
100
AcDbEntity
  8
寸法
  6
Continuous
 62
     0
370
    -2
100
AcDbLine
 10
726.8988127986353
 20
1190.0
 30
0.0
 11
726.8988127986353
 21
1015.0
 31
0.0
  0
LINE
  5
AA
330
2A
100
AcDbEntity
  8
寸法
  6
Continuous
 62
     0
370
    20
100
AcDbLine
 10
738.1241329499713
 20
1178.774679848663
 30
0.0
 11
715.6734926472989
 21
1201.225320151336
 31
0.0
  0
LINE
  5
AB
330
2A
100
AcDbEntity
  8
寸法
  6
Continuous
 62
     0
370
    20
100
AcDbLine
 10
715.6734926472989
 20
1026.225320151336
 30
0.0
 11
738.1241329499713
 21
1003.774679848663
 31
0.0
  0
WIPEOUT
  5
AC
330
2A
100
AcDbEntity
  8
寸法
  6
Continuous
 62
     0
 92
      276
310
1401000003000000800000000A000000ECBAC3C4303A8540711C8FFFBFDA9040000000000000000000000000000000000000000000000000000000000000F03F000000000000F03F000000000000000000000000000000000000000000000000000000000000F03F000000000000000041634462576970656F757420285769
310
70654F757429000000840000000600000005000000ECBAC3C4303A8540711C8FFFBFDA90400000000000000000ECBAC3C430388640711C8FFFBFDA90400000000000000000ECBAC3C4303886408DE37000409991400000000000000000ECBAC3C4303A85408DE37000409991400000000000000000ECBAC3C4303A8540711C
310
8FFFBFDA904000000000000000000800000015000000
370
    -2
100
AcDbWipeout
 90
        0
 10
679.2738127986353
 20
1439.827178540472
 30
0.0
 11
47.62500336435107
 21
0.0
 31
0.0
 12
0.0
 22
47.62500336435107
 32
0.0
 13
1.0
 23
1.0
340
0
 70
     7
280
     1
281
    50
282
    50
283
     0
360
0
 71
     2
 91
        5
 14
0.1666666195716419
 24
8.082984875817837
 14
0.1666666195716419
 24
7.082984875817841
 14
-0.5
 24
7.082984875817841
 14
-0.5
 24
8.082984875817837
 14
0.1666666195716419
 24
8.082984875817837
  0
MTEXT
  5
AD
330
2A
100
AcDbEntity
  8
寸法
 62
     0
100
AcDbMText
 10
682.1461956111352
 20
1078.687498317824
 30
0.0
 40
24.4326171875
 41
0.0
 71
     1
 72
     1
  1
175
  7
ＭＳ ゴシック
 11
0.0
 21
1.0
 31
0.0
 73
     1
 44
0.7828267384257845
1001
ACAD
1000
MTEXTBEGIN
1070
    73
1070
     1
1070
    44
1040
0.7828267384257845
1070
    74
1070
     0
1000
MTEXTEND
  0
POINT
  5
AE
330
2A
100
AcDbEntity
  8
Defpoints
 62
     0
370
     0
100
AcDbPoint
 10
706.8988127986353
 20
1015.0
 30
0.0
  0
POINT
  5
AF
330
2A
100
AcDbEntity
  8
Defpoints
 62
     0
370
     0
100
AcDbPoint
 10
706.8988127986353
 20
1190.0
 30
0.0
  0
POINT
  5
B0
330
2A
100
AcDbEntity
  8
Defpoints
 62
     0
370
     0
100
AcDbPoint
 10
726.8988127986353
 20
1190.0
 30
0.0
  0
ENDBLK
  5
B1
330
2A
100
AcDbEntity
  8
寸法
100
AcDbBlockEnd
  0
BLOCK
  5
B2
330
2B
100
AcDbEntity
  8
寸法
100
AcDbBlockBegin
  2
*D9
 70
     1
 10
0.0
 20
0.0
 30
0.0
  3
*D9
  1

  0
LINE
  5
B3
330
2B
100
AcDbEntity
  8
寸法
  6
Continuous
 62
     0
370
    -2
100
AcDbLine
 10
60.0
 20
774.1249999999999
 30
0.0
 11
60.0
 21
519.4222829376614
 31
0.0
  0
LINE
  5
B4
330
2B
100
AcDbEntity
  8
寸法
  6
Continuous
 62
     0
370
    -2
100
AcDbLine
 10
570.0
 20
690.209945435796
 30
0.0
 11
570.0
 21
519.4222829376614
 31
0.0
  0
LINE
  5
B5
330
2B
100
AcDbEntity
  8
寸法
  6
Continuous
 62
     0
370
    -2
100
AcDbLine
 10
44.125
 20
551.1722829376614
 30
0.0
 11
60.0
 21
551.1722829376614
 31
0.0
  0
LINE
  5
B6
330
2B
100
AcDbEntity
  8
寸法
  6
Continuous
 62
     0
370
    -2
100
AcDbLine
 10
570.0
 20
551.1722829376614
 30
0.0
 11
585.8749999999998
 21
551.1722829376614
 31
0.0
  0
LINE
  5
B7
330
2B
100
AcDbEntity
  8
寸法
  6
Continuous
 62
     0
370
    -2
100
AcDbLine
 10
60.0
 20
551.1722829376614
 30
0.0
 11
570.0
 21
551.1722829376614
 31
0.0
  0
LINE
  5
B8
330
2B
100
AcDbEntity
  8
寸法
  6
Continuous
 62
     0
370
    20
100
AcDbLine
 10
71.22532015133652
 20
562.3976030889976
 30
0.0
 11
48.77467984866347
 21
539.946962786325
 31
0.0
  0
LINE
  5
B9
330
2B
100
AcDbEntity
  8
寸法
  6
Continuous
 62
     0
370
    20
100
AcDbLine
 10
558.7746798486636
 20
539.946962786325
 30
0.0
 11
581.2253201513364
 21
562.3976030889976
 31
0.0
  0
WIPEOUT
  5
BA
330
2B
100
AcDbEntity
  8
寸法
  6
Continuous
 62
     0
 92
      276
310
1401000003000000800000000A000000C8713CFEFF3272405277E0D560B88140000000000000000000000000000000000000000000000000000000000000F03F000000000000F03F000000000000000000000000000000000000000000000000000000000000F03F000000000000000041634462576970656F757420285769
310
70654F757429000000840000000600000005000000C8713CFEFF3272405277E0D560B8814000000000000000003A8EC301002D75405277E0D560B8814000000000000000003A8EC301002D75405377E0D560B682400000000000000000C8713CFEFF3272405377E0D560B682400000000000000000C8713CFEFF3272405277
310
E0D560B8814000000000000000000800000015000000
370
    -2
100
AcDbWipeout
 90
        0
 10
291.1874983178245
 20
928.1869631603095
 30
0.0
 11
47.62500336435107
 21
0.0
 31
0.0
 12
0.0
 22
47.62500336435107
 32
0.0
 13
1.0
 23
1.0
340
0
 70
     7
280
     1
281
    50
282
    50
283
     0
360
0
 71
     2
 91
        5
 14
-0.5
 24
8.082984875817842
 14
0.5
 24
8.082984875817842
 14
0.5
 24
7.416318256246199
 14
-0.5
 24
7.416318256246199
 14
-0.5
 24
8.082984875817842
  0
MTEXT
  5
BB
330
2B
100
AcDbEntity
  8
寸法
 62
     0
100
AcDbMText
 10
291.1874983178245
 20
595.9249001251615
 30
0.0
 40
24.4326171875
 41
0.0
 71
     1
 72
     1
  1
510
  7
ＭＳ ゴシック
 73
     1
 44
0.7828267384257845
1001
ACAD
1000
MTEXTBEGIN
1070
    73
1070
     1
1070
    44
1040
0.7828267384257845
1070
    74
1070
     0
1000
MTEXTEND
  0
POINT
  5
BC
330
2B
100
AcDbEntity
  8
Defpoints
 62
     0
370
     0
100
AcDbPoint
 10
570.0
 20
706.084945435796
 30
0.0
  0
POINT
  5
BD
330
2B
100
AcDbEntity
  8
Defpoints
 62
     0
370
     0
100
AcDbPoint
 10
60.0
 20
790.0
 30
0.0
  0
POINT
  5
BE
330
2B
100
AcDbEntity
  8
Defpoints
 62
     0
370
     0
100
AcDbPoint
 10
60.0
 20
551.1722829376614
 30
0.0
  0
ENDBLK
  5
BF
330
2B
100
AcDbEntity
  8
寸法
100
AcDbBlockEnd
  0
BLOCK
  5
C0
330
2C
100
AcDbEntity
  8
寸法
100
AcDbBlockBegin
  2
*D10
 70
     1
 10
0.0
 20
0.0
 30
0.0
  3
*D10
  1

  0
LINE
  5
C1
330
2C
100
AcDbEntity
  8
寸法
  6
Continuous
 62
     0
370
    -2
100
AcDbLine
 10
1500.0
 20
702.125
 30
0.0
 11
1500.0
 21
560.25
 31
0.0
  0
LINE
  5
C2
330
2C
100
AcDbEntity
  8
寸法
  6
Continuous
 62
     0
370
    -2
100
AcDbLine
 10
1515.0
 20
702.125
 30
0.0
 11
1515.0
 21
560.25
 31
0.0
  0
LINE
  5
C3
330
2C
100
AcDbEntity
  8
寸法
  6
Continuous
 62
     0
370
    -2
100
AcDbLine
 10
1484.125
 20
592.0
 30
0.0
 11
1500.0
 21
592.0
 31
0.0
  0
LINE
  5
C4
330
2C
100
AcDbEntity
  8
寸法
  6
Continuous
 62
     0
370
    -2
100
AcDbLine
 10
1515.0
 20
592.0
 30
0.0
 11
1530.875
 21
592.0
 31
0.0
  0
LINE
  5
C5
330
2C
100
AcDbEntity
  8
寸法
  6
Continuous
 62
     0
370
    -2
100
AcDbLine
 10
1500.0
 20
592.0
 30
0.0
 11
1515.0
 21
592.0
 31
0.0
  0
LINE
  5
C6
330
2C
100
AcDbEntity
  8
寸法
  6
Continuous
 62
     0
370
    20
100
AcDbLine
 10
1511.225320151336
 20
603.2253201513364
 30
0.0
 11
1488.774679848664
 21
580.7746798486634
 31
0.0
  0
LINE
  5
C7
330
2C
100
AcDbEntity
  8
寸法
  6
Continuous
 62
     0
370
    20
100
AcDbLine
 10
1503.774679848663
 20
580.7746798486634
 30
0.0
 11
1526.225320151336
 21
603.2253201513364
 31
0.0
  0
WIPEOUT
  5
C8
330
2C
100
AcDbEntity
  8
寸法
  6
Continuous
 62
     0
 92
      276
310
1401000003000000800000000A00000000000000804E97400200000000FF8240000000000000000000000000000000000000000000000000000000000000F03F000000000000F03F000000000000000000000000000000000000000000000000000000000000F03F000000000000000041634462576970656F757420285769
310
70654F75742900000084000000060000000500000000000000804E97400200000000FF824000000000000000000000000080CD97400200000000FF824000000000000000000000000080CD97400200000000FD8340000000000000000000000000804E97400200000000FD8340000000000000000000000000804E97400200
310
000000FF824000000000000000000800000015000000
370
    -2
100
AcDbWipeout
 90
        0
 10
1491.625
 20
969.0146802226481
 30
0.0
 11
31.75
 21
0.0
 31
0.0
 12
0.0
 22
31.75
 32
0.0
 13
1.0
 23
1.0
340
0
 70
     7
280
     1
281
    50
282
    50
283
     0
360
0
 71
     2
 91
        5
 14
-0.5
 24
11.87447811724875
 14
0.5
 24
11.87447811724875
 14
0.5
 24
10.87447811724875
 14
-0.5
 24
10.87447811724875
 14
-0.5
 24
11.87447811724875
  0
MTEXT
  5
C9
330
2C
100
AcDbEntity
  8
寸法
 62
     0
100
AcDbMText
 10
1491.625
 20
636.7526171875002
 30
0.0
 40
24.4326171875
 41
0.0
 71
     1
 72
     1
  1
15
  7
ＭＳ ゴシック
 73
     1
 44
0.7828267384257845
1001
ACAD
1000
MTEXTBEGIN
1070
    73
1070
     1
1070
    44
1040
0.7828267384257845
1070
    74
1070
     0
1000
MTEXTEND
  0
POINT
  5
CA
330
2C
100
AcDbEntity
  8
Defpoints
 62
     0
370
     0
100
AcDbPoint
 10
1515.0
 20
718.0
 30
0.0
  0
POINT
  5
CB
330
2C
100
AcDbEntity
  8
Defpoints
 62
     0
370
     0
100
AcDbPoint
 10
1500.0
 20
718.0
 30
0.0
  0
POINT
  5
CC
330
2C
100
AcDbEntity
  8
Defpoints
 62
     0
370
     0
100
AcDbPoint
 10
1500.0
 20
592.0
 30
0.0
  0
ENDBLK
  5
CD
330
2C
100
AcDbEntity
  8
寸法
100
AcDbBlockEnd
  0
BLOCK
  5
CE
330
2D
100
AcDbEntity
  8
寸法
100
AcDbBlockBegin
  2
*D11
 70
     1
 10
0.0
 20
0.0
 30
0.0
  3
*D11
  1

  0
LINE
  5
CF
330
2D
100
AcDbEntity
  8
寸法
  6
Continuous
 62
     0
370
    -2
100
AcDbLine
 10
1500.0
 20
1129.875
 30
0.0
 11
1500.0
 21
1299.007417636164
 31
0.0
  0
LINE
  5
D0
330
2D
100
AcDbEntity
  8
寸法
  6
Continuous
 62
     0
370
    -2
100
AcDbLine
 10
1705.0
 20
1129.875
 30
0.0
 11
1705.0
 21
1299.007417636164
 31
0.0
  0
LINE
  5
D1
330
2D
100
AcDbEntity
  8
寸法
  6
Continuous
 62
     0
370
    -2
100
AcDbLine
 10
1484.125
 20
1267.257417636164
 30
0.0
 11
1500.0
 21
1267.257417636164
 31
0.0
  0
LINE
  5
D2
330
2D
100
AcDbEntity
  8
寸法
  6
Continuous
 62
     0
370
    -2
100
AcDbLine
 10
1705.0
 20
1267.257417636164
 30
0.0
 11
1720.875
 21
1267.257417636164
 31
0.0
  0
LINE
  5
D3
330
2D
100
AcDbEntity
  8
寸法
  6
Continuous
 62
     0
370
    -2
100
AcDbLine
 10
1500.0
 20
1267.257417636164
 30
0.0
 11
1705.0
 21
1267.257417636164
 31
0.0
  0
LINE
  5
D4
330
2D
100
AcDbEntity
  8
寸法
  6
Continuous
 62
     0
370
    20
100
AcDbLine
 10
1511.225320151336
 20
1278.4827377875
 30
0.0
 11
1488.774679848664
 21
1256.032097484828
 31
0.0
  0
LINE
  5
D5
330
2D
100
AcDbEntity
  8
寸法
  6
Continuous
 62
     0
370
    20
100
AcDbLine
 10
1693.774679848663
 20
1256.032097484828
 30
0.0
 11
1716.225320151336
 21
1278.4827377875
 31
0.0
  0
WIPEOUT
  5
D6
330
2D
100
AcDbEntity
  8
寸法
  6
Continuous
 62
     0
 92
      276
310
1401000003000000800000000A00000034745E9E01BC9840F4227D98870C9440000000000000000000000000000000000000000000000000000000000000F03F000000000000F03F000000000000000000000000000000000000000000000000000000000000F03F000000000000000041634462576970656F757420285769
310
70654F75742900000084000000060000000500000034745E9E01BC9840F4227D98870C94400000000000000000503B409F817A9940F4227D98870C94400000000000000000503B409F817A9940F4227D98878B9440000000000000000034745E9E01BC9840F4227D98878B9440000000000000000034745E9E01BC9840F422
310
7D98870C944000000000000000000800000015000000
370
    -2
100
AcDbWipeout
 90
        0
 10
1583.001580692141
 20
1644.272097858812
 30
0.0
 11
47.62500336435102
 21
0.0
 31
0.0
 12
0.0
 22
47.62500336435102
 32
0.0
 13
1.0
 23
1.0
340
0
 70
     7
280
     1
281
    50
282
    50
283
     0
360
0
 71
     2
 91
        5
 14
-0.5
 24
8.082984875817848
 14
0.4999999999999988
 24
8.082984875817848
 14
0.4999999999999988
 24
7.416318256246206
 14
-0.5
 24
7.416318256246206
 14
-0.5
 24
8.082984875817848
  0
MTEXT
  5
D7
330
2D
100
AcDbEntity
  8
寸法
 62
     0
100
AcDbMText
 10
1583.001580692141
 20
1312.010034823664
 30
0.0
 40
24.4326171875
 41
0.0
 71
     1
 72
     1
  1
205
  7
ＭＳ ゴシック
 73
     1
 44
0.7828267384257845
1001
ACAD
1000
MTEXTBEGIN
1070
    73
1070
     1
1070
    44
1040
0.7828267384257845
1070
    74
1070
     0
1000
MTEXTEND
  0
POINT
  5
D8
330
2D
100
AcDbEntity
  8
Defpoints
 62
     0
370
     0
100
AcDbPoint
 10
1705.0
 20
1114.0
 30
0.0
  0
POINT
  5
D9
330
2D
100
AcDbEntity
  8
Defpoints
 62
     0
370
     0
100
AcDbPoint
 10
1500.0
 20
1114.0
 30
0.0
  0
POINT
  5
DA
330
2D
100
AcDbEntity
  8
Defpoints
 62
     0
370
     0
100
AcDbPoint
 10
1500.0
 20
1267.257417636164
 30
0.0
  0
ENDBLK
  5
DB
330
2D
100
AcDbEntity
  8
寸法
100
AcDbBlockEnd
  0
BLOCK
  5
DC
330
2E
100
AcDbEntity
  8
寸法
100
AcDbBlockBegin
  2
*D12
 70
     1
 10
0.0
 20
0.0
 30
0.0
  3
*D12
  1

  0
LINE
  5
DD
330
2E
100
AcDbEntity
  8
寸法
  6
Continuous
 62
     0
370
    -2
100
AcDbLine
 10
1705.0
 20
1079.875
 30
0.0
 11
1705.0
 21
1018.5
 31
0.0
  0
LINE
  5
DE
330
2E
100
AcDbEntity
  8
寸法
  6
Continuous
 62
     0
370
    -2
100
AcDbLine
 10
1712.0
 20
1079.875
 30
0.0
 11
1712.0
 21
1018.5
 31
0.0
  0
LINE
  5
DF
330
2E
100
AcDbEntity
  8
寸法
  6
Continuous
 62
     0
370
    -2
100
AcDbLine
 10
1689.125
 20
1050.25
 30
0.0
 11
1705.0
 21
1050.25
 31
0.0
  0
LINE
  5
E0
330
2E
100
AcDbEntity
  8
寸法
  6
Continuous
 62
     0
370
    -2
100
AcDbLine
 10
1712.0
 20
1050.25
 30
0.0
 11
1727.875
 21
1050.25
 31
0.0
  0
LINE
  5
E1
330
2E
100
AcDbEntity
  8
寸法
  6
Continuous
 62
     0
370
    -2
100
AcDbLine
 10
1712.0
 20
1050.25
 30
0.0
 11
1771.875
 21
1050.25
 31
0.0
  0
LINE
  5
E2
330
2E
100
AcDbEntity
  8
寸法
  6
Continuous
 62
     0
370
    -2
100
AcDbLine
 10
1705.0
 20
1050.25
 30
0.0
 11
1712.0
 21
1050.25
 31
0.0
  0
LINE
  5
E3
330
2E
100
AcDbEntity
  8
寸法
  6
Continuous
 62
     0
370
    20
100
AcDbLine
 10
1716.225320151336
 20
1061.475320151336
 30
0.0
 11
1693.774679848663
 21
1039.024679848663
 31
0.0
  0
LINE
  5
E4
330
2E
100
AcDbEntity
  8
寸法
  6
Continuous
 62
     0
370
    20
100
AcDbLine
 10
1700.774679848663
 20
1039.024679848663
 30
0.0
 11
1723.225320151336
 21
1061.475320151336
 31
0.0
  0
WIPEOUT
  5
E5
330
2E
100
AcDbEntity
  8
寸法
  6
Continuous
 62
     0
 92
      276
310
1401000003000000800000000A0000000000000000709B40FFFFFFFF7FA89040000000000000000000000000000000000000000000000000000000000000F03F000000000000F03F000000000000000000000000000000000000000000000000000000000000F03F000000000000000041634462576970656F757420285769
310
70654F7574290000008400000006000000050000000000000000709B40FFFFFFFF7FA8904000000000000000000000000080AF9B40FFFFFFFF7FA8904000000000000000000000000080AF9B40FFFFFFFF7F27914000000000000000000000000000709B40FFFFFFFF7F27914000000000000000000000000000709B40FFFF
310
FFFF7FA8904000000000000000000800000015000000
370
    -2
100
AcDbWipeout
 90
        0
 10
1756.0
 20
1427.264680222648
 30
0.0
 11
31.75
 21
0.0
 31
0.0
 12
0.0
 22
31.75
 32
0.0
 13
1.0
 23
1.0
340
0
 70
     7
280
     1
281
    50
282
    50
283
     0
360
0
 71
     2
 91
        5
 14
-0.5
 24
11.87447811724876
 14
0.0
 24
11.87447811724876
 14
0.0
 24
10.87447811724876
 14
-0.5
 24
10.87447811724876
 14
-0.5
 24
11.87447811724876
  0
MTEXT
  5
E6
330
2E
100
AcDbEntity
  8
寸法
 62
     0
100
AcDbMText
 10
1756.0
 20
1095.0026171875
 30
0.0
 40
24.4326171875
 41
0.0
 71
     1
 72
     1
  1
7
  7
ＭＳ ゴシック
 73
     1
 44
0.7828267384257845
1001
ACAD
1000
MTEXTBEGIN
1070
    73
1070
     1
1070
    44
1040
0.7828267384257845
1070
    74
1070
     0
1000
MTEXTEND
  0
POINT
  5
E7
330
2E
100
AcDbEntity
  8
Defpoints
 62
     0
370
     0
100
AcDbPoint
 10
1712.0
 20
1095.75
 30
0.0
  0
POINT
  5
E8
330
2E
100
AcDbEntity
  8
Defpoints
 62
     0
370
     0
100
AcDbPoint
 10
1705.0
 20
1095.75
 30
0.0
  0
POINT
  5
E9
330
2E
100
AcDbEntity
  8
Defpoints
 62
     0
370
     0
100
AcDbPoint
 10
1705.0
 20
1050.25
 30
0.0
  0
ENDBLK
  5
EA
330
2E
100
AcDbEntity
  8
寸法
100
AcDbBlockEnd
  0
BLOCK
  5
EB
330
2F
100
AcDbEntity
  8
寸法
100
AcDbBlockBegin
  2
*D13
 70
     1
 10
0.0
 20
0.0
 30
0.0
  3
*D13
  1

  0
LINE
  5
EC
330
2F
100
AcDbEntity
  8
寸法
  6
Continuous
 62
     0
370
    -2
100
AcDbLine
 10
1705.0
 20
737.1249999999998
 30
0.0
 11
1705.0
 21
560.25
 31
0.0
  0
LINE
  5
ED
330
2F
100
AcDbEntity
  8
寸法
  6
Continuous
 62
     0
370
    -2
100
AcDbLine
 10
1690.0
 20
737.1249999999998
 30
0.0
 11
1690.0
 21
560.25
 31
0.0
  0
LINE
  5
EE
330
2F
100
AcDbEntity
  8
寸法
  6
Continuous
 62
     0
370
    -2
100
AcDbLine
 10
1720.875
 20
592.0
 30
0.0
 11
1705.0
 21
592.0
 31
0.0
  0
LINE
  5
EF
330
2F
100
AcDbEntity
  8
寸法
  6
Continuous
 62
     0
370
    -2
100
AcDbLine
 10
1690.0
 20
592.0
 30
0.0
 11
1674.125
 21
592.0
 31
0.0
  0
LINE
  5
F0
330
2F
100
AcDbEntity
  8
寸法
  6
Continuous
 62
     0
370
    -2
100
AcDbLine
 10
1705.0
 20
592.0
 30
0.0
 11
1690.0
 21
592.0
 31
0.0
  0
LINE
  5
F1
330
2F
100
AcDbEntity
  8
寸法
  6
Continuous
 62
     0
370
    20
100
AcDbLine
 10
1693.774679848663
 20
580.7746798486634
 30
0.0
 11
1716.225320151336
 21
603.2253201513364
 31
0.0
  0
LINE
  5
F2
330
2F
100
AcDbEntity
  8
寸法
  6
Continuous
 62
     0
370
    20
100
AcDbLine
 10
1701.225320151336
 20
603.2253201513364
 30
0.0
 11
1678.774679848664
 21
580.7746798486634
 31
0.0
  0
WIPEOUT
  5
F3
330
2F
100
AcDbEntity
  8
寸法
  6
Continuous
 62
     0
 92
      276
310
1401000003000000800000000A0000000000000080469A400200000000FF8240000000000000000000000000000000000000000000000000000000000000F03F000000000000F03F000000000000000000000000000000000000000000000000000000000000F03F000000000000000041634462576970656F757420285769
310
70654F7574290000008400000006000000050000000000000080469A400200000000FF824000000000000000000000000080C59A400200000000FF824000000000000000000000000080C59A400200000000FD834000000000000000000000000080469A400200000000FD834000000000000000000000000080469A400200
310
000000FF824000000000000000000800000015000000
370
    -2
100
AcDbWipeout
 90
        0
 10
1681.625
 20
969.0146802226481
 30
0.0
 11
31.75
 21
0.0
 31
0.0
 12
0.0
 22
31.75
 32
0.0
 13
1.0
 23
1.0
340
0
 70
     7
280
     1
281
    50
282
    50
283
     0
360
0
 71
     2
 91
        5
 14
-0.5
 24
11.87447811724875
 14
0.5
 24
11.87447811724875
 14
0.5
 24
10.87447811724875
 14
-0.5
 24
10.87447811724875
 14
-0.5
 24
11.87447811724875
  0
MTEXT
  5
F4
330
2F
100
AcDbEntity
  8
寸法
 62
     0
100
AcDbMText
 10
1681.625
 20
636.7526171875002
 30
0.0
 40
24.4326171875
 41
0.0
 71
     1
 72
     1
  1
15
  7
ＭＳ ゴシック
 73
     1
 44
0.7828267384257845
1001
ACAD
1000
MTEXTBEGIN
1070
    73
1070
     1
1070
    44
1040
0.7828267384257845
1070
    74
1070
     0
1000
MTEXTEND
  0
POINT
  5
F5
330
2F
100
AcDbEntity
  8
Defpoints
 62
     0
370
     0
100
AcDbPoint
 10
1690.0
 20
753.0
 30
0.0
  0
POINT
  5
F6
330
2F
100
AcDbEntity
  8
Defpoints
 62
     0
370
     0
100
AcDbPoint
 10
1705.0
 20
753.0
 30
0.0
  0
POINT
  5
F7
330
2F
100
AcDbEntity
  8
Defpoints
 62
     0
370
     0
100
AcDbPoint
 10
1705.0
 20
592.0
 30
0.0
  0
ENDBLK
  5
F8
330
2F
100
AcDbEntity
  8
寸法
100
AcDbBlockEnd
  0
BLOCK
  5
F9
330
30
100
AcDbEntity
  8
寸法
100
AcDbBlockBegin
  2
*D14
 70
     1
 10
0.0
 20
0.0
 30
0.0
  3
*D14
  1

  0
LINE
  5
FA
330
30
100
AcDbEntity
  8
寸法
  6
Continuous
 62
     0
370
    -2
100
AcDbLine
 10
643.4374980289447
 20
984.5503056953155
 30
0.0
 11
775.0
 21
930.0
 31
0.0
  0
LINE
  5
FB
330
30
100
AcDbEntity
  8
寸法
  6
Continuous
 62
     0
370
    -2
100
AcDbLine
 10
775.0
 20
930.0
 30
0.0
 11
917.875
 21
930.0
 31
0.0
  0
LINE
  5
FC
330
30
100
AcDbEntity
  8
寸法
  6
Continuous
 62
     0
370
    -2
100
AcDbLine
 10
496.5625019710554
 20
1045.449694304684
 30
0.0
 11
643.4374980289447
 21
984.5503056953155
 31
0.0
  0
SOLID
  5
FD
330
30
100
AcDbEntity
  8
寸法
 62
     0
370
    -2
100
AcDbTrace
 10
496.5625019710554
 20
1045.449694304684
 30
0.0
 11
529.1126319363511
 21
1040.87507186969
 31
0.0
 12
522.4644301999895
 22
1025.212890080609
 32
0.0
 13
522.4644301999895
 23
1025.212890080609
 33
0.0
  0
SOLID
  5
FE
330
30
100
AcDbEntity
  8
寸法
 62
     0
370
    -2
100
AcDbTrace
 10
643.4374980289447
 20
984.5503056953155
 30
0.0
 11
610.8873680636487
 21
989.1249281303096
 31
0.0
 12
617.5355698000104
 22
1004.78710991939
 32
0.0
 13
617.5355698000104
 23
1004.78710991939
 33
0.0
  0
WIPEOUT
  5
FF
330
30
100
AcDbEntity
  8
寸法
  6
Continuous
 62
     0
 92
      276
310
1401000003000000800000000A000000FFFFFFFFFF338A40FEFFFFFFFF8E8D40000000000000000000000000000000000000000000000000000000000000F03F000000000000F03F000000000000000000000000000000000000000000000000000000000000F03F000000000000000041634462576970656F757420285769
310
70654F757429000000840000000600000005000000FFFFFFFFFF338A40FEFFFFFFFF8E8D400000000000000000FFFFFFFFFFAE8C40FEFFFFFFFF8E8D400000000000000000FFFFFFFFFFAE8C40FEFFFFFFFF8C8E400000000000000000FFFFFFFFFF338A40FEFFFFFFFF8C8E400000000000000000FFFFFFFFFF338A40FEFF
310
FFFFFF8E8D4000000000000000000800000015000000
370
    -2
100
AcDbWipeout
 90
        0
 10
838.4999999999999
 20
1307.014680222648
 30
0.0
 11
79.375
 21
0.0
 31
0.0
 12
0.0
 22
79.375
 32
0.0
 13
1.0
 23
1.0
340
0
 70
     7
280
     1
281
    50
282
    50
283
     0
360
0
 71
     2
 91
        5
 14
-0.5
 24
5.049791246899504
 14
0.5
 24
5.049791246899504
 14
0.5
 24
4.649791246899503
 14
-0.5
 24
4.649791246899503
 14
-0.5
 24
5.049791246899504
  0
MTEXT
  5
100
330
30
100
AcDbEntity
  8
寸法
 62
     0
100
AcDbMText
 10
838.4999999999999
 20
974.7526171875
 30
0.0
 40
24.4326171875
 41
0.0
 71
     1
 72
     1
  1
\U+03c6159
  7
ＭＳ ゴシック
 73
     1
 44
0.7828267384257845
1001
ACAD
1000
MTEXTBEGIN
1070
    73
1070
     1
1070
    44
1040
0.7828267384257845
1070
    74
1070
     0
1000
MTEXTEND
  0
POINT
  5
101
330
30
100
AcDbEntity
  8
Defpoints
 62
     0
370
     0
100
AcDbPoint
 10
496.5625019710554
 20
1045.449694304684
 30
0.0
  0
POINT
  5
102
330
30
100
AcDbEntity
  8
Defpoints
 62
     0
370
     0
100
AcDbPoint
 10
643.4374980289447
 20
984.5503056953155
 30
0.0
  0
ENDBLK
  5
103
330
30
100
AcDbEntity
  8
寸法
100
AcDbBlockEnd
  0
BLOCK
  5
104
330
31
100
AcDbEntity
  8
寸法
100
AcDbBlockBegin
  2
*D15
 70
     1
 10
0.0
 20
0.0
 30
0.0
  3
*D15
  1

  0
LINE
  5
105
330
31
100
AcDbEntity
  8
寸法
  6
Continuous
 62
     0
370
    -2
100
AcDbLine
 10
638.7127225140592
 20
956.1033807022349
 30
0.0
 11
745.0
 21
865.0
 31
0.0
  0
LINE
  5
106
330
31
100
AcDbEntity
  8
寸法
  6
Continuous
 62
     0
370
    -2
100
AcDbLine
 10
745.0
 20
865.0
 30
0.0
 11
887.875
 21
865.0
 31
0.0
  0
LINE
  5
107
330
31
100
AcDbEntity
  8
寸法
  6
Continuous
 62
     0
370
    -2
100
AcDbLine
 10
501.2872774859407
 20
1073.896619297765
 30
0.0
 11
638.7127225140592
 21
956.1033807022349
 31
0.0
  0
SOLID
  5
108
330
31
100
AcDbEntity
  8
寸法
 62
     0
370
    -2
100
AcDbTrace
 10
501.2872774859407
 20
1073.896619297765
 30
0.0
 11
530.8306546204271
 21
1059.487351492984
 31
0.0
 12
519.6679586955999
 22
1046.646138761649
 32
0.0
 13
519.6679586955999
 23
1046.646138761649
 33
0.0
  0
SOLID
  5
109
330
31
100
AcDbEntity
  8
寸法
 62
     0
370
    -2
100
AcDbTrace
 10
638.7127225140592
 20
956.1033807022349
 30
0.0
 11
609.1693453795727
 21
970.5126485070152
 31
0.0
 12
620.3320413044
 22
983.3538612383513
 32
0.0
 13
620.3320413044
 23
983.3538612383513
 33
0.0
  0
WIPEOUT
  5
10A
330
31
100
AcDbEntity
  8
寸法
  6
Continuous
 62
     0
 92
      276
310
1401000003000000800000000A0000000000000000448940FEFFFFFFFF868B40000000000000000000000000000000000000000000000000000000000000F03F000000000000F03F000000000000000000000000000000000000000000000000000000000000F03F000000000000000041634462576970656F757420285769
310
70654F7574290000008400000006000000050000000000000000448940FEFFFFFFFF868B4000000000000000000000000000BF8B40FEFFFFFFFF868B4000000000000000000000000000BF8B40FEFFFFFFFF848C4000000000000000000000000000448940FEFFFFFFFF848C4000000000000000000000000000448940FEFF
310
FFFFFF868B4000000000000000000800000015000000
370
    -2
100
AcDbWipeout
 90
        0
 10
808.5
 20
1242.014680222648
 30
0.0
 11
79.375
 21
0.0
 31
0.0
 12
0.0
 22
79.375
 32
0.0
 13
1.0
 23
1.0
340
0
 70
     7
280
     1
281
    50
282
    50
283
     0
360
0
 71
     2
 91
        5
 14
-0.5
 24
5.049791246899504
 14
0.5
 24
5.049791246899504
 14
0.5
 24
4.649791246899503
 14
-0.5
 24
4.649791246899503
 14
-0.5
 24
5.049791246899504
  0
MTEXT
  5
10B
330
31
100
AcDbEntity
  8
寸法
 62
     0
100
AcDbMText
 10
808.5
 20
909.7526171875001
 30
0.0
 40
24.4326171875
 41
0.0
 71
     1
 72
     1
  1
\U+03c6181
  7
ＭＳ ゴシック
 73
     1
 44
0.7828267384257845
1001
ACAD
1000
MTEXTBEGIN
1070
    73
1070
     1
1070
    44
1040
0.7828267384257845
1070
    74
1070
     0
1000
MTEXTEND
  0
POINT
  5
10C
330
31
100
AcDbEntity
  8
Defpoints
 62
     0
370
     0
100
AcDbPoint
 10
501.2872774859407
 20
1073.896619297765
 30
0.0
  0
POINT
  5
10D
330
31
100
AcDbEntity
  8
Defpoints
 62
     0
370
     0
100
AcDbPoint
 10
638.7127225140592
 20
956.1033807022349
 30
0.0
  0
ENDBLK
  5
10E
330
31
100
AcDbEntity
  8
寸法
100
AcDbBlockEnd
  0
ENDSEC
  0
SECTION
  2
ENTITIES
  0
CIRCLE
  5
10F
330
A
100
AcDbEntity
  8
実形
  6
Continuous
 62
     7
370
    18
100
AcDbCircle
 10
570.0
 20
1015.0
 30
0.0
 40
90.49999999999998
  0
LWPOLYLINE
  5
110
330
A
100
AcDbEntity
  8
実形
  6
Continuous
 62
     7
370
    25
100
AcDbPolyline
 90
        8
 70
   129
 43
0.0
 10
60.0
 20
1150.0
 42
-0.4142135623730951
 10
100.0
 20
1190.0
 10
1040.0
 20
1190.0
 42
-0.4142135623730951
 10
1080.0
 20
1150.0
 10
1080.0
 20
758.0
 42
-0.4142135623730951
 10
1040.0
 20
718.0
 10
100.0
 20
718.0
 42
-0.4142135623730951
 10
60.0
 20
758.0
  0
LWPOLYLINE
  5
111
330
A
100
AcDbEntity
  8
実形
  6
Continuous
 62
     7
370
    25
100
AcDbPolyline
 90
        8
 70
   129
 43
0.0
 10
75.0
 20
1105.0
 42
-0.4142135623730951
 10
145.0
 20
1175.0
 10
995.0
 20
1175.0
 42
-0.4142135623730951
 10
1065.0
 20
1105.0
 10
1065.0
 20
803.0
 42
-0.4142135623730951
 10
995.0
 20
733.0
 10
145.0
 20
733.0
 42
-0.4142135623730951
 10
75.0
 20
803.0
  0
LWPOLYLINE
  5
112
330
A
100
AcDbEntity
  8
実形
  6
Continuous
 62
     7
370
    25
100
AcDbPolyline
 90
        8
 70
   129
 43
0.0
 10
95.0
 20
1065.0
 42
-0.4142135623730951
 10
185.0
 20
1155.0
 10
955.0
 20
1155.0
 42
-0.4142135623730951
 10
1045.0
 20
1065.0
 10
1045.0
 20
843.0
 42
-0.4142135623730951
 10
955.0
 20
753.0
 10
185.0
 20
753.0
 42
-0.4142135623730951
 10
95.0
 20
843.0
  0
LINE
  5
113
330
A
100
AcDbEntity
  8
実形
  6
STYLE_04
 62
     7
370
     5
100
AcDbLine
 10
570.0
 20
555.0
 30
0.0
 11
570.0
 21
1430.0
 31
0.0
  0
DIMENSION
  5
114
330
A
100
AcDbEntity
  8
寸法
  6
Continuous
 62
     7
370
    13
100
AcDbDimension
  2
*D2
 10
60.0
 20
1517.38787472012
 30
0.0
 11
570.0
 21
1517.38787472012
 31
0.0
 71
     5
 42
0.0
  3
Arch
100
AcDbAlignedDimension
 13
1080.0
 23
1125.0
 33
0.0
 14
60.0
 24
1125.0
 34
0.0
100
AcDbRotatedDimension
1001
ACAD
1000
DSTYLE
1002
{
1070
   279
1070
     2
1070
   340
1005
33
1070
   147
1040
15.875
1002
}
  0
DIMENSION
  5
115
330
A
100
AcDbEntity
  8
寸法
  6
Continuous
 62
     7
370
    13
100
AcDbDimension
  2
*D3
 10
75.0
 20
1465.0
 30
0.0
 11
570.0
 21
1465.0
 31
0.0
 71
     5
 42
0.0
  3
Arch
100
AcDbAlignedDimension
 13
1065.0
 23
1070.0
 33
0.0
 14
75.0
 24
1070.0
 34
0.0
100
AcDbRotatedDimension
1001
ACAD
1000
DSTYLE
1002
{
1070
   279
1070
     2
1070
   340
1005
33
1070
   147
1040
15.875
1002
}
  0
DIMENSION
  5
116
330
A
100
AcDbEntity
  8
寸法
  6
Continuous
 62
     7
370
    13
100
AcDbDimension
  2
*D4
 10
95.0
 20
1415.0
 30
0.0
 11
570.0
 21
1415.0
 31
0.0
 71
     5
 42
0.0
  3
Arch
100
AcDbAlignedDimension
 13
1045.0
 23
1040.0
 33
0.0
 14
95.0
 24
1040.0
 34
0.0
100
AcDbRotatedDimension
1001
ACAD
1000
DSTYLE
1002
{
1070
   279
1070
     2
1070
   340
1005
33
1070
   147
1040
15.875
1002
}
  0
DIMENSION
  5
117
330
A
100
AcDbEntity
  8
寸法
  6
Continuous
 62
     7
370
    13
100
AcDbDimension
  2
*D5
 10
-185.0
 20
1190.0
 30
0.0
 11
-185.0
 21
954.0
 31
0.0
 71
     5
 42
0.0
  3
Arch
100
AcDbAlignedDimension
 13
170.0
 23
718.0
 33
0.0
 14
170.0
 24
1190.0
 34
0.0
 50
90.0
100
AcDbRotatedDimension
1001
ACAD
1000
DSTYLE
1002
{
1070
   279
1070
     2
1070
   340
1005
33
1070
   147
1040
15.875
1002
}
  0
DIMENSION
  5
118
330
A
100
AcDbEntity
  8
寸法
  6
Continuous
 62
     7
370
    13
100
AcDbDimension
  2
*D6
 10
-135.0
 20
1175.0
 30
0.0
 11
-135.0
 21
954.0
 31
0.0
 71
     5
 42
0.0
  3
Arch
100
AcDbAlignedDimension
 13
235.0
 23
733.0
 33
0.0
 14
235.0
 24
1175.0
 34
0.0
 50
90.0
100
AcDbRotatedDimension
1001
ACAD
1000
DSTYLE
1002
{
1070
   279
1070
     2
1070
   340
1005
33
1070
   147
1040
15.875
1002
}
  0
DIMENSION
  5
119
330
A
100
AcDbEntity
  8
寸法
  6
Continuous
 62
     7
370
    13
100
AcDbDimension
  2
*D7
 10
-79.93833977421902
 20
1155.0
 30
0.0
 11
-79.93833977421902
 21
954.0
 31
0.0
 71
     5
 42
0.0
  3
Arch
100
AcDbAlignedDimension
 13
240.061660225781
 23
753.0
 33
0.0
 14
240.061660225781
 24
1155.0
 34
0.0
 50
90.0
100
AcDbRotatedDimension
1001
ACAD
1000
DSTYLE
1002
{
1070
   279
1070
     2
1070
   340
1005
33
1070
   147
1040
15.875
1002
}
  0
DIMENSION
  5
11A
330
A
100
AcDbEntity
  8
寸法
  6
Continuous
 62
     7
370
    25
100
AcDbDimension
  2
*D8
 10
726.8988127986353
 20
1190.0
 30
0.0
 11
726.8988127986353
 21
1102.5
 31
0.0
 71
     5
 42
0.0
  3
Arch
100
AcDbAlignedDimension
 13
706.8988127986353
 23
1015.0
 33
0.0
 14
706.8988127986353
 24
1190.0
 34
0.0
 50
90.0
100
AcDbRotatedDimension
1001
ACAD
1000
DSTYLE
1002
{
1070
   279
1070
     2
1070
   340
1005
33
1070
   147
1040
15.875
1002
}
  0
LINE
  5
11B
330
A
100
AcDbEntity
  8
実形
  6
Continuous
 62
     7
370
    25
100
AcDbLine
 10
68.77501000800794
 20
733.0
 30
0.0
 11
235.0
 21
835.0
 31
0.0
  0
SOLID
  5
11C
330
A
100
AcDbEntity
  8
実形
 62
     7
370
    25
100
AcDbTrace
 10
68.77501000800794
 20
733.0
 30
0.0
 11
91.60844365457114
 21
756.6447127089418
 31
0.0
 12
100.3716999560289
 22
742.0602050478467
 32
0.0
 13
100.3716999560289
 23
742.0602050478467
 33
0.0
  0
MTEXT
  5
11D
330
A
100
AcDbEntity
  8
実形
 62
     7
100
AcDbMText
 10
238.8177612666575
 20
851.6374435149808
 30
0.0
 40
24.4326171875
 41
0.0
 71
     1
 72
     1
  1
\U+ff3240
  7
ＭＳ ゴシック
 11
0.8660254037844387
 21
0.5
 31
0.0
 73
     1
 44
0.7828267384257845
1001
ACAD
1000
MTEXTBEGIN
1070
    73
1070
     1
1070
    44
1040
0.7828267384257845
1070
    74
1070
     0
1000
MTEXTEND
  0
LINE
  5
11E
330
A
100
AcDbEntity
  8
実形
  6
Continuous
 62
     7
370
    25
100
AcDbLine
 10
95.95963357744448
 20
1155.318804204975
 30
0.0
 11
262.1846235694365
 21
1053.318804204975
 31
0.0
  0
SOLID
  5
11F
330
A
100
AcDbEntity
  8
実形
 62
     7
370
    25
100
AcDbTrace
 10
95.95963357744448
 20
1155.318804204975
 30
0.0
 11
127.3933888156442
 21
1145.708540795195
 31
0.0
 12
118.3769324451779
 22
1131.279194335946
 32
0.0
 13
118.3769324451779
 23
1131.279194335946
 33
0.0
  0
MTEXT
  5
120
330
A
100
AcDbEntity
  8
実形
 62
     7
100
AcDbMText
 10
273.0289901269644
 20
1065.781829199892
 30
0.0
 40
24.4326171875
 41
65.83603762828413
 71
     1
 72
     1
  1
R70
  7
ＭＳ ゴシック
 11
0.866025403784438
 21
-0.5000000000000015
 31
0.0
 73
     1
 44
0.7828267384257845
1001
ACAD
1000
MTEXTBEGIN
1070
    73
1070
     1
1070
    44
1040
0.7828267384257845
1070
    74
1070
     0
1000
MTEXTEND
  0
LINE
  5
121
330
A
100
AcDbEntity
  8
実形
  6
Continuous
 62
     7
370
    25
100
AcDbLine
 10
1014.495320577183
 20
1125.773758359602
 30
0.0
 11
930.0
 21
1073.925220427443
 31
0.0
  0
SOLID
  5
122
330
A
100
AcDbEntity
  8
実形
 62
     7
370
    25
100
AcDbTrace
 10
1014.495320577183
 20
1125.773758359602
 30
0.0
 11
991.6618869306198
 21
1102.12904565066
 31
0.0
 12
982.8986306291616
 22
1116.713553311756
 32
0.0
 13
982.8986306291616
 23
1116.713553311756
 33
0.0
  0
MTEXT
  5
123
330
A
100
AcDbEntity
  8
実形
 62
     7
100
AcDbMText
 10
873.3720052805676
 20
1054.639489242565
 30
0.0
 40
24.4326171875
 41
0.0
 71
     1
 72
     1
  1
R90
  7
ＭＳ ゴシック
 11
0.8660254037844378
 21
0.5000000000000015
 31
0.0
 73
     1
 44
0.7828267384257845
1001
ACAD
1000
MTEXTBEGIN
1070
    73
1070
     1
1070
    44
1040
0.7828267384257845
1070
    74
1070
     0
1000
MTEXTEND
  0
CIRCLE
  5
124
330
A
100
AcDbEntity
  8
実形
  6
Continuous
 62
     7
370
    18
100
AcDbCircle
 10
570.0
 20
1015.0
 30
0.0
 40
79.49999999999997
  0
DIMENSION
  5
125
330
A
100
AcDbEntity
  8
寸法
  6
Continuous
 62
     7
370
    18
100
AcDbDimension
  2
*D9
 10
60.0
 20
551.1722829376614
 30
0.0
 11
315.0
 21
551.1722829376614
 31
0.0
 71
     5
 42
0.0
  3
Arch
100
AcDbAlignedDimension
 13
570.0
 23
706.084945435796
 33
0.0
 14
60.0
 24
790.0
 34
0.0
100
AcDbRotatedDimension
1001
ACAD
1000
DSTYLE
1002
{
1070
   279
1070
     2
1070
   340
1005
33
1070
   147
1040
15.875
1002
}
  0
LINE
  5
126
330
A
100
AcDbEntity
  8
実形
  6
Continuous
 62
     7
370
    25
100
AcDbLine
 10
1500.0
 20
1190.0
 30
0.0
 11
1500.0
 21
718.0
 31
0.0
  0
POLYLINE
  5
127
330
A
100
AcDbEntity
  8
実形
  6
Continuous
 62
     7
370
    25
100
AcDb2dPolyline
 66
     1
 10
0.0
 20
0.0
 30
0.0
 70
     1
 75
     5
  0
VERTEX
  5
128
330
127
100
AcDbEntity
  8
実形
  6
Continuous
 62
     7
370
    25
100
AcDbVertex
100
AcDb2dVertex
 10
1500.0
 20
1175.0
 30
0.0
  0
VERTEX
  5
129
330
127
100
AcDbEntity
  8
実形
  6
Continuous
 62
     7
370
    25
100
AcDbVertex
100
AcDb2dVertex
 10
1515.0
 20
1175.0
 30
0.0
  0
VERTEX
  5
12A
330
127
100
AcDbEntity
  8
実形
  6
Continuous
 62
     7
370
    25
100
AcDbVertex
100
AcDb2dVertex
 10
1515.0
 20
733.0
 30
0.0
  0
VERTEX
  5
12B
330
127
100
AcDbEntity
  8
実形
  6
Continuous
 62
     7
370
    25
100
AcDbVertex
100
AcDb2dVertex
 10
1500.0
 20
733.0
 30
0.0
  0
SEQEND
  5
12C
330
127
100
AcDbEntity
  8
実形
  6
Continuous
 62
     7
370
    25
  0
DIMENSION
  5
12D
330
A
100
AcDbEntity
  8
寸法
  6
Continuous
 62
     7
370
    13
100
AcDbDimension
  2
*D10
 10
1500.0
 20
592.0
 30
0.0
 11
1507.5
 21
592.0
 31
0.0
 71
     5
 42
0.0
  3
Arch
100
AcDbAlignedDimension
 13
1515.0
 23
718.0
 33
0.0
 14
1500.0
 24
718.0
 34
0.0
100
AcDbRotatedDimension
1001
ACAD
1000
DSTYLE
1002
{
1070
   279
1070
     2
1070
   340
1005
33
1070
   147
1040
15.875
1002
}
  0
POLYLINE
  5
12E
330
A
100
AcDbEntity
  8
実形
  6
Continuous
 62
     7
370
    25
100
AcDb2dPolyline
 66
     1
 10
0.0
 20
0.0
 30
0.0
 70
     1
 75
     5
  0
VERTEX
  5
12F
330
12E
100
AcDbEntity
  8
実形
  6
Continuous
 62
     7
370
    25
100
AcDbVertex
100
AcDb2dVertex
 10
1705.0
 20
1095.0
 30
0.0
  0
VERTEX
  5
130
330
12E
100
AcDbEntity
  8
実形
  6
Continuous
 62
     7
370
    25
100
AcDbVertex
100
AcDb2dVertex
 10
1712.0
 20
1095.0
 30
0.0
  0
VERTEX
  5
131
330
12E
100
AcDbEntity
  8
実形
  6
Continuous
 62
     7
370
    25
100
AcDbVertex
100
AcDb2dVertex
 10
1712.0
 20
935.0
 30
0.0
  0
VERTEX
  5
132
330
12E
100
AcDbEntity
  8
実形
  6
Continuous
 62
     7
370
    25
100
AcDbVertex
100
AcDb2dVertex
 10
1705.0
 20
935.0
 30
0.0
  0
SEQEND
  5
133
330
12E
100
AcDbEntity
  8
実形
  6
Continuous
 62
     7
370
    25
  0
LINE
  5
134
330
A
100
AcDbEntity
  8
実形
  6
Continuous
 62
     7
370
    25
100
AcDbLine
 10
1472.0
 20
786.1819816618512
 30
0.0
 11
1387.504679422816
 21
838.0305195940103
 31
0.0
  0
SOLID
  5
135
330
A
100
AcDbEntity
  8
実形
 62
     7
370
    25
100
AcDbTrace
 10
1472.0
 20
786.1819816618512
 30
0.0
 11
1440.5662447618
 21
795.7922450716305
 31
0.0
 12
1449.582701132267
 22
810.22159153088
 32
0.0
 13
1449.582701132267
 23
810.22159153088
 33
0.0
  0
MTEXT
  5
136
330
A
100
AcDbEntity
  8
実形
 62
     7
100
AcDbMText
 10
1346.260551890884
 20
883.9618903645305
 30
0.0
 40
24.4326171875
 41
0.0
 71
     1
 72
     1
  1
R30
  7
ＭＳ ゴシック
 11
0.8660254037844371
 21
-0.5000000000000028
 31
0.0
 73
     1
 44
0.7828267384257845
1001
ACAD
1000
MTEXTBEGIN
1070
    73
1070
     1
1070
    44
1040
0.7828267384257845
1070
    74
1070
     0
1000
MTEXTEND
  0
DIMENSION
  5
137
330
A
100
AcDbEntity
  8
寸法
  6
Continuous
 62
     7
370
    13
100
AcDbDimension
  2
*D11
 10
1500.0
 20
1267.257417636164
 30
0.0
 11
1606.814082374317
 21
1283.132417636164
 31
0.0
 70
   128
 71
     5
 42
0.0
  3
Arch
100
AcDbAlignedDimension
 13
1705.0
 23
1114.0
 33
0.0
 14
1500.0
 24
1114.0
 34
0.0
100
AcDbRotatedDimension
1001
ACAD
1000
DSTYLE
1002
{
1070
   279
1070
     2
1070
   340
1005
33
1070
   147
1040
15.875
1002
}
  0
DIMENSION
  5
138
330
A
100
AcDbEntity
  8
寸法
  6
Continuous
 62
     7
370
    13
100
AcDbDimension
  2
*D12
 10
1705.0
 20
1050.25
 30
0.0
 11
1756.0
 21
1066.125
 31
0.0
 70
   128
 71
     5
 42
0.0
  3
Arch
100
AcDbAlignedDimension
 13
1712.0
 23
1095.75
 33
0.0
 14
1705.0
 24
1095.75
 34
0.0
100
AcDbRotatedDimension
1001
ACAD
1000
DSTYLE
1002
{
1070
   279
1070
     2
1070
   340
1005
33
1070
   174
1070
     0
1070
   147
1040
15.875
1002
}
  0
LWPOLYLINE
  5
139
330
A
100
AcDbEntity
  8
実形
  6
Continuous
 62
     7
370
    25
100
AcDbPolyline
 90
       15
 70
   129
 43
0.0
 10
1515.0
 20
1155.0
 10
1675.0
 20
1155.0
 42
-0.4142135623730951
 10
1705.0
 20
1125.0
 10
1705.0
 20
1095.0
 10
1705.0
 20
935.0
 10
1690.0
 20
783.0
 10
1689.423558412096
 20
777.1472903395164
 10
1687.716385975338
 20
771.5194970290474
 10
1684.944088369076
 20
766.3328930094118
 10
1681.213203435596
 20
761.7867965644035
 10
1676.667106990588
 20
758.0559116309233
 10
1671.480502970952
 20
755.2836140246612
 10
1665.852709660484
 20
753.5764415879031
 10
1660.0
 20
753.0
 10
1515.0
 20
753.0
  0
DIMENSION
  5
13A
330
A
100
AcDbEntity
  8
寸法
  6
Continuous
 62
     7
370
    25
100
AcDbDimension
  2
*D13
 10
1705.0
 20
592.0
 30
0.0
 11
1697.5
 21
592.0
 31
0.0
 71
     5
 42
0.0
  3
Arch
100
AcDbAlignedDimension
 13
1690.0
 23
753.0
 33
0.0
 14
1705.0
 24
753.0
 34
0.0
100
AcDbRotatedDimension
1001
ACAD
1000
DSTYLE
1002
{
1070
   279
1070
     2
1070
   340
1005
33
1070
   147
1040
15.875
1002
}
  0
DIMENSION
  5
13B
330
A
100
AcDbEntity
  8
寸法
  6
Continuous
 62
     7
370
    25
100
AcDbDimension
  2
*D14
 10
496.5625019710554
 20
1045.449694304684
 30
0.0
 11
838.4999999999999
 21
930.0
 31
0.0
 70
     3
 71
     5
 42
0.0
  3
Arch
100
AcDbDiametricDimension
 15
643.4374980289447
 25
984.5503056953155
 35
0.0
 40
142.4234102117216
1001
ACAD
1000
DSTYLE
1002
{
1070
   289
1070
     0
1070
   342
1005
4B
1070
   340
1005
33
1070
    73
1070
     1
1070
    74
1070
     1
1070
    75
1070
     1
1070
    76
1070
     1
1070
     3
1000
φ<>
1070
   174
1070
     0
1070
   147
1040
15.875
1002
}
  0
DIMENSION
  5
13C
330
A
100
AcDbEntity
  8
寸法
  6
Continuous
 62
     7
370
    25
100
AcDbDimension
  2
*D15
 10
501.2872774859407
 20
1073.896619297765
 30
0.0
 11
808.5
 21
865.0
 31
0.0
 70
     3
 71
     5
 42
0.0
  3
Arch
100
AcDbDiametricDimension
 15
638.7127225140592
 25
956.1033807022349
 35
0.0
 40
139.9886114323221
1001
ACAD
1000
DSTYLE
1002
{
1070
   289
1070
     0
1070
   342
1005
4B
1070
   340
1005
33
1070
    73
1070
     1
1070
    74
1070
     1
1070
    75
1070
     1
1070
    76
1070
     1
1070
     3
1000
φ<>
1070
   174
1070
     0
1070
   147
1040
15.875
1002
}
  0
LINE
  5
13D
330
A
100
AcDbEntity
  8
一般
100
AcDbLine
 10
-280.5271077837249
 20
-210.2699857798924
 30
0.0
 11
2499.472892216275
 21
-210.2699857798924
 31
0.0
  0
LINE
  5
13E
330
A
100
AcDbEntity
  8
一般
100
AcDbLine
 10
-280.5271077837249
 20
1709.730014220108
 30
0.0
 11
-280.5271077837249
 21
-210.2699857798924
 31
0.0
  0
LINE
  5
13F
330
A
100
AcDbEntity
  8
一般
100
AcDbLine
 10
2499.472892216275
 20
1709.730014220108
 30
0.0
 11
-280.5271077837249
 21
1709.730014220108
 31
0.0
  0
LINE
  5
140
330
A
100
AcDbEntity
  8
一般
100
AcDbLine
 10
2499.472892216275
 20
-210.2699857798924
 30
0.0
 11
2499.472892216275
 21
1709.730014220108
 31
0.0
  0
LINE
  5
141
330
A
100
AcDbEntity
  8
一般
 62
     0
100
AcDbLine
 10
1899.472892216275
 20
-145.2699857798924
 30
0.0
 11
1899.472892216275
 21
-15.26998577989241
 31
0.0
  0
LINE
  5
142
330
A
100
AcDbEntity
  8
一般
 62
     0
100
AcDbLine
 10
1899.472892216275
 20
-145.2699857798924
 30
0.0
 11
2499.472892216275
 21
-145.2699857798924
 31
0.0
  0
LINE
  5
143
330
A
100
AcDbEntity
  8
一般
 62
     0
100
AcDbLine
 10
1779.472892216275
 20
-80.26998577989242
 30
0.0
 11
2499.472892216275
 21
-80.26998577989242
 31
0.0
  0
LINE
  5
144
330
A
100
AcDbEntity
  8
一般
 62
     0
100
AcDbLine
 10
1779.472892216275
 20
-15.26998577989241
 30
0.0
 11
2499.472892216275
 21
-15.26998577989241
 31
0.0
  0
LINE
  5
145
330
A
100
AcDbEntity
  8
一般
 62
     0
100
AcDbLine
 10
2499.472892216275
 20
-210.2699857798924
 30
0.0
 11
2499.472892216275
 21
-145.2699857798924
 31
0.0
  0
LINE
  5
146
330
A
100
AcDbEntity
  8
一般
 62
     0
100
AcDbLine
 10
2499.472892216275
 20
-80.26998577989242
 30
0.0
 11
2499.472892216275
 21
-15.26998577989241
 31
0.0
  0
LINE
  5
147
330
A
100
AcDbEntity
  8
一般
 62
     0
100
AcDbLine
 10
1779.472892216275
 20
-145.2699857798924
 30
0.0
 11
2499.472892216275
 21
-145.2699857798924
 31
0.0
  0
LINE
  5
148
330
A
100
AcDbEntity
  8
一般
 62
     0
100
AcDbLine
 10
1779.472892216275
 20
-210.2699857798924
 30
0.0
 11
1779.472892216275
 21
-15.26998577989241
 31
0.0
  0
LINE
  5
149
330
A
100
AcDbEntity
  8
一般
 62
     0
100
AcDbLine
 10
2499.472892216275
 20
1644.730014220108
 30
0.0
 11
1779.472892216275
 21
1644.730014220108
 31
0.0
  0
LINE
  5
14A
330
A
100
AcDbEntity
  8
一般
 62
     0
100
AcDbLine
 10
2499.472892216275
 20
1579.730014220108
 30
0.0
 11
1779.472892216275
 21
1579.730014220108
 31
0.0
  0
LINE
  5
14B
330
A
100
AcDbEntity
  8
一般
 62
     0
100
AcDbLine
 10
1779.472892216275
 20
1514.730014220108
 30
0.0
 11
1779.472892216275
 21
1709.730014220108
 31
0.0
  0
LINE
  5
14C
330
A
100
AcDbEntity
  8
一般
 62
     0
100
AcDbLine
 10
1949.472892216275
 20
1513.730014220108
 30
0.0
 11
1949.472892216275
 21
1709.730014220108
 31
0.0
  0
LINE
  5
14D
330
A
100
AcDbEntity
  8
一般
 62
     0
100
AcDbLine
 10
2224.472892216275
 20
1514.730014220108
 30
0.0
 11
2224.472892216275
 21
1709.730014220108
 31
0.0
  0
MTEXT
  5
14E
330
A
100
AcDbEntity
  8
一般
 62
     0
100
AcDbMText
 10
2190.354211407996
 20
-99.3847065920753
 30
0.0
 40
35.0
 41
0.0
 71
     2
 72
     1
  1
1\U+ff1a10
  7
ＭＳ ゴシック
 73
     1
 44
0.7859706209094222
1001
ACAD
1000
MTEXTBEGIN
1070
    73
1070
     1
1070
    44
1040
0.7859706209094222
1070
    74
1070
     0
1000
MTEXTEND
  0
MTEXT
  5
150
330
A
100
AcDbEntity
  8
一般
 62
     0
100
AcDbMText
 10
1792.472892216275
 20
-29.41898317572577
 30
0.0
 40
35.29155815972223
 41
0.0
 71
     1
 72
     1
  1
\U+54c1\U+756a
  7
ＭＳ ゴシック
 73
     1
 44
0.7828267384257841
1001
ACAD
1000
MTEXTBEGIN
1070
    73
1070
     1
1070
    44
1040
0.7828267384257841
1070
    74
1070
     0
1000
MTEXTEND
  0
MTEXT
  5
151
330
A
100
AcDbEntity
  8
一般
 62
     0
100
AcDbMText
 10
1795.043670399274
 20
-97.22106650905914
 30
0.0
 40
35.29155815972223
 41
0.0
 71
     1
 72
     1
  1
\U+5c3a\U+5ea6
  7
ＭＳ ゴシック
 73
     1
 44
0.7828267384257841
1001
ACAD
1000
MTEXTBEGIN
1070
    73
1070
     1
1070
    44
1040
0.7828267384257841
1070
    74
1070
     0
1000
MTEXTEND
  0
WIPEOUT
  5
152
330
A
100
AcDbEntity
  8
一般
 62
     0
 92
      276
310
1401000003000000800000000A000000BD6DDB3DE41F9C40940243DF3CD09940000000000000000000000000000000000000000000000000000000000000F03F000000000000F03F000000000000000000000000000000000000000000000000000000000000F03F000000000000000041634462576970656F757420285769
310
70654F757429000000840000000600000005000000BD6DDB3DE41F9C40940243DF3CD099400000000000000000BC6D1B39F02E9E40940243DF3CD099400000000000000000BC6D1B39F02E9E40E903D988EB7F9A400000000000000000BD6DDB3DE41F9C40E903D988EB7F9A400000000000000000BD6DDB3DE41F9C409402
310
43DF3CD0994000000000000000000800000015000000
100
AcDbWipeout
 90
        0
 10
1799.972892216275
 20
2013.199125648666
 30
0.0
 11
131.7617006301879
 21
0.0
 31
0.0
 12
0.0
 22
131.7617006301879
 32
0.0
 13
1.0
 23
1.0
340
0
 70
     7
280
     1
281
    50
282
    50
283
     0
360
0
 71
     2
 91
        5
 14
-0.5
 24
3.240854728615328
 14
0.4999999999999992
 24
3.240854728615328
 14
0.4999999999999992
 24
2.907521380730267
 14
-0.5
 24
2.907521380730267
 14
-0.5
 24
3.240854728615328
  0
MTEXT
  5
153
330
A
100
AcDbEntity
  8
一般
 62
     0
100
AcDbMText
 10
1799.972892216275
 20
1692.006575262016
 30
0.0
 40
33.79825020482697
 41
0.0
 71
     1
 72
     1
  1
\U+90e8\U+54c1\U+540d
  7
ＭＳ ゴシック
 73
     1
 44
0.7828267384257845
1001
ACAD
1000
MTEXTBEGIN
1070
    73
1070
     1
1070
    44
1040
0.7828267384257845
1070
    74
1070
     0
1000
MTEXTEND
  0
WIPEOUT
  5
154
330
A
100
AcDbEntity
  8
一般
 62
     0
 92
      276
310
1401000003000000800000000A000000BD6DDB3DE4019C402492BCC179C39740000000000000000000000000000000000000000000000000000000000000F03F000000000000F03F000000000000000000000000000000000000000000000000000000000000F03F000000000000000041634462576970656F757420285769
310
70654F757429000000840000000600000005000000BD6DDB3DE4019C402492BCC179C39740000000000000000010C3309339289E402492BCC179C39740000000000000000010C3309339289E40EC03D988EB7A98400000000000000000BD6DDB3DE4019C40EC03D988EB7A98400000000000000000BD6DDB3DE4019C402492
310
BCC179C3974000000000000000000800000015000000
100
AcDbWipeout
 90
        0
 10
1792.472892216275
 20
1882.008583331645
 30
0.0
 11
137.5833333333332
 21
0.0
 31
0.0
 12
0.0
 22
137.5833333333332
 32
0.0
 13
1.0
 23
1.0
340
0
 70
     7
280
     1
281
    50
282
    50
283
     0
360
0
 71
     2
 91
        5
 14
-0.5
 24
3.124879565518945
 14
0.4999999999999984
 24
3.124879565518945
 14
0.4999999999999984
 24
2.791546232185611
 14
-0.5
 24
2.791546232185611
 14
-0.5
 24
3.124879565518945
  0
MTEXT
  5
155
330
A
100
AcDbEntity
  8
一般
 62
     0
100
AcDbMText
 10
1792.472892216275
 20
1562.581016824275
 30
0.0
 40
35.29155815972223
 41
0.0
 71
     1
 72
     1
  1
\U+30dc\U+30fc\U+30eb
  7
ＭＳ ゴシック
 73
     1
 44
0.7828267384257841
1001
ACAD
1000
MTEXTBEGIN
1070
    73
1070
     1
1070
    44
1040
0.7828267384257841
1070
    74
1070
     0
1000
MTEXTEND
  0
WIPEOUT
  5
156
330
A
100
AcDbEntity
  8
一般
 62
     0
 92
      276
310
1401000003000000800000000A000000C16DDB3DE4E99F405ACA7F505BCC9940000000000000000000000000000000000000000000000000000000000000F03F000000000000F03F000000000000000000000000000000000000000000000000000000000000F03F000000000000000041634462576970656F757420285769
310
70654F757429000000840000000600000005000000C16DDB3DE4E99F405ACA7F505BCC99400000000000000000A7280AE663ACA0405ACA7F505BCC99400000000000000000A7280AE663ACA040203C9C17CD839A400000000000000000C16DDB3DE4E99F40203C9C17CD839A400000000000000000C16DDB3DE4E99F405ACA
310
7F505BCC994000000000000000000800000015000000
100
AcDbWipeout
 90
        0
 10
2042.472892216276
 20
2012.228854490155
 30
0.0
 11
91.72222222222215
 21
0.0
 31
0.0
 12
0.0
 22
91.72222222222215
 32
0.0
 13
1.0
 23
1.0
340
0
 70
     7
280
     1
281
    50
282
    50
283
     0
360
0
 71
     2
 91
        5
 14
-0.5
 24
4.437319348278419
 14
0.5
 24
4.437319348278419
 14
0.5
 24
3.937319348278418
 14
-0.5
 24
3.937319348278418
 14
-0.5
 24
4.437319348278419
  0
MTEXT
  5
157
330
A
100
AcDbEntity
  8
一般
 62
     0
100
AcDbMText
 10
2042.472892216276
 20
1692.801287982784
 30
0.0
 40
35.29155815972223
 41
0.0
 71
     1
 72
     1
  1
\U+6750\U+8cea
  7
ＭＳ ゴシック
 73
     1
 44
0.7828267384257841
1001
ACAD
1000
MTEXTBEGIN
1070
    73
1070
     1
1070
    44
1040
0.7828267384257841
1070
    74
1070
     0
1000
MTEXTEND
  0
WIPEOUT
  5
158
330
A
100
AcDbEntity
  8
一般
 62
     0
 92
      276
310
1401000003000000800000000A000000DEB6ED1EF2B6A140BB0F80F423D39940000000000000000000000000000000000000000000000000000000000000F03F000000000000F03F000000000000000000000000000000000000000000000000000000000000F03F000000000000000041634462576970656F757420285769
310
70654F757429000000840000000600000005000000DEB6ED1EF2B6A140BB0F80F423D399400000000000000000DFB6ED1EF233A340BB0F80F423D399400000000000000000DFB6ED1EF233A340F49D632DB2989A400000000000000000DEB6ED1EF2B6A140F49D632DB2989A400000000000000000DEB6ED1EF2B6A140BB0F
310
80F423D3994000000000000000000800000015000000
100
AcDbWipeout
 90
        0
 10
2267.472892216275
 20
2013.924792604545
 30
0.0
 11
190.5000000000001
 21
0.0
 31
0.0
 12
0.0
 22
190.5000000000001
 32
0.0
 13
1.0
 23
1.0
340
0
 70
     7
280
     1
281
    50
282
    50
283
     0
360
0
 71
     2
 91
        5
 14
-0.5
 24
2.395746352874791
 14
0.5000000000000018
 24
2.395746352874791
 14
0.5000000000000018
 24
2.136487093615532
 14
-0.5
 24
2.136487093615532
 14
-0.5
 24
2.395746352874791
  0
MTEXT
  5
159
330
A
100
AcDbEntity
  8
一般
 62
     0
100
AcDbMText
 10
2267.472892216275
 20
1697.705850229118
 30
0.0
 40
35.29155815972223
 41
0.0
 71
     1
 72
     1
  1
\U+7d20\U+6750{\H1.077x;\l\U+5bf8\U+6cd5}
  7
ＭＳ ゴシック
 73
     1
 44
0.7828267384257845
1001
ACAD
1000
MTEXTBEGIN
1070
    73
1070
     1
1070
    44
1040
0.7828267384257845
1070
    74
1070
     0
1000
MTEXTEND
  0
WIPEOUT
  5
15A
330
A
100
AcDbEntity
  8
一般
 62
     0
 92
      276
310
1401000003000000800000000A000000DC344D5A2B8E9F4006CB4AA532CB9840000000000000000000000000000000000000000000000000000000000000F03F000000000000F03F000000000000000000000000000000000000000000000000000000000000F03F000000000000000041634462576970656F757420285769
310
70654F757429000000840000000600000005000000DC344D5A2B8E9F4006CB4AA532CB984000000000000000001945D15740DAA04006CB4AA532CB984000000000000000001945D15740DAA040CC3C676CA48299400000000000000000DC344D5A2B8E9F40CC3C676CA48299400000000000000000DC344D5A2B8E9F4006CB
310
4AA532CB984000000000000000000800000015000000
100
AcDbWipeout
 90
        0
 10
2019.54233666072
 20
1947.9391388872
 30
0.0
 11
137.5833333333332
 21
0.0
 31
0.0
 12
0.0
 22
137.5833333333332
 32
0.0
 13
1.0
 23
1.0
340
0
 70
     7
280
     1
281
    50
282
    50
283
     0
360
0
 71
     2
 91
        5
 14
-0.5
 24
3.124879565518943
 14
0.5000000000000016
 24
3.124879565518943
 14
0.5000000000000016
 24
2.791546232185611
 14
-0.5
 24
2.791546232185611
 14
-0.5
 24
3.124879565518943
  0
MTEXT
  5
15B
330
A
100
AcDbEntity
  8
一般
 62
     0
100
AcDbMText
 10
2019.54233666072
 20
1628.51157237983
 30
0.0
 40
35.29155815972223
 41
0.0
 71
     1
 72
     1
  1
SUS304
  7
ＭＳ ゴシック
 73
     1
 44
0.7828267384257841
1001
ACAD
1000
MTEXTBEGIN
1070
    73
1070
     1
1070
    44
1040
0.7828267384257841
1070
    74
1070
     0
1000
MTEXTEND
  0
WIPEOUT
  5
15C
330
A
100
AcDbEntity
  8
一般
 62
     0
 92
      276
310
1401000003000000800000000A000000B98D29532DD0A140C739DA5ABFD79840000000000000000000000000000000000000000000000000000000000000F03F000000000000F03F000000000000000000000000000000000000000000000000000000000000F03F000000000000000041634462576970656F757420285769
310
70654F757429000000840000000600000005000000B98D29532DD0A140C739DA5ABFD798400000000000000000633894517109A340C739DA5ABFD798400000000000000000633894517109A3408EABF621318F99400000000000000000B98D29532DD0A1408EABF621318F99400000000000000000B98D29532DD0A140C739
310
DA5ABFD7984000000000000000000800000015000000
100
AcDbWipeout
 90
        0
 10
2280.08852510314
 20
1951.076550234718
 30
0.0
 11
156.6328004201253
 21
0.0
 31
0.0
 12
0.0
 22
156.6328004201253
 32
0.0
 13
1.0
 23
1.0
340
0
 70
     7
280
     1
281
    50
282
    50
283
     0
360
0
 71
     2
 91
        5
 14
-0.5
 24
2.805645300690455
 14
0.4999999999999984
 24
2.805645300690455
 14
0.4999999999999984
 24
2.512851511726069
 14
-0.5
 24
2.512851511726069
 14
-0.5
 24
2.805645300690455
  0
MTEXT
  5
15D
330
A
100
AcDbEntity
  8
一般
 62
     0
100
AcDbMText
 10
2280.08852510314
 20
1631.648983727347
 30
0.0
 40
35.29155815972223
 41
0.0
 71
     1
 72
     1
  1
1.0{\H0.9577x;\l\U+ff4d\U+ff4d}
  7
ＭＳ ゴシック
 73
     1
 44
0.7828267384257841
1001
ACAD
1000
MTEXTBEGIN
1070
    73
1070
     1
1070
    44
1040
0.7828267384257841
1070
    74
1070
     0
1000
MTEXTEND
  0
MTEXT
  5
15E
330
A
100
AcDbEntity
  8
一般
 62
     0
100
AcDbMText
 10
2186.417336660721
 20
-50.51998577989333
 30
0.0
 40
30.31684027777777
 41
0.0
 71
     5
 72
     1
  1
SSJ-102
  7
Arial
 73
     1
 44
0.9673603504928806
1001
ACAD
1000
MTEXTBEGIN
1070
    73
1070
     1
1070
    44
1040
0.9673603504928806
1070
    74
1070
     0
1000
MTEXTEND
  0
MTEXT
  5
15F
330
A
100
AcDbEntity
  8
0
100
AcDbMText
 10
-190.5271077837248
 20
-43.79688933319197
 30
0.0
 40
30.0
 41
0.0
 71
     1
 72
     1
  3
{\C7;\l\U+203B\U+5b9f\U+5bf8\U+306b\U+306f\U+88fd\U+9020\U+4e0a\U+306e\U+8aa4\U+5dee\U+304c\U+591a\U+5c11\U+751f\U+305a\U+308b\U+5834\U+5408\U+304c\U+3042\U+308a\U+307e\U+3059\U+3002\U+30b7\U+30f3\U+30af\U+306e\U+7a74\U+3042\U+3051\U+52a0\U+5de5\U+30
  1
6f\U+73fe\U+7269\U+5408\U+308f\U+305b\U+306b\U+3066\U+304a\U+9858\U+3044\U+3057\U+307e\U+3059\U+3002}
  7
ＭＳ ゴシック
 73
     1
 44
0.7922963146858741
1001
ACAD
1000
MTEXTBEGIN
1070
    73
1070
     1
1070
    44
1040
0.7922963146858741
1070
    74
1070
     0
1000
MTEXTEND
  0
MTEXT
  5
160
330
A
100
AcDbEntity
  8
実形
 62
     7
100
AcDbMText
 10
-187.5497634180826
 20
13.56113339613193
 30
0.0
 40
27.14735243055556
 41
0.0
 71
     1
 72
     1
  1
\U+203B\U+30b7\U+30f3\U+30af\U+306b\U+6c34\U+6813\U+7a74\U+306f\U+8a2d\U+3051\U+3089\U+308c\U+307e\U+305b\U+3093\U+3002
  7
ＭＳ ゴシック
 73
     1
 44
0.7828267384257845
1001
ACAD
1000
MTEXTBEGIN
1070
    73
1070
     1
1070
    44
1040
0.7828267384257845
1070
    74
1070
     0
1000
MTEXTEND
  0
LINE
  5
161
330
A
100
AcDbEntity
  8
一般
 62
     0
100
AcDbLine
 10
2499.472892216276
 20
1514.730014220108
 30
0.0
 11
1779.472892216275
 21
1514.730014220108
 31
0.0
  0
WIPEOUT
  5
162
330
A
100
AcDbEntity
  8
一般
 62
     0
 92
      276
310
1401000003000000800000000A00000010C33093B9529C4009CB4AA532D79840000000000000000000000000000000000000000000000000000000000000F03F000000000000F03F000000000000000000000000000000000000000000000000000000000000F03F000000000000000041634462576970656F757420285769
310
70654F75742900000084000000060000000500000010C33093B9529C4009CB4AA532D7984000000000000000009EA669219DC19D4009CB4AA532D7984000000000000000009EA669219DC19D40D03C676CA48E9940000000000000000010C33093B9529C40D03C676CA48E9940000000000000000010C33093B9529C4009CB
310
4AA532D7984000000000000000000800000015000000
100
AcDbWipeout
 90
        0
 10
1812.681225549608
 20
1950.939138887201
 30
0.0
 11
91.72222222222215
 21
0.0
 31
0.0
 12
0.0
 22
91.72222222222215
 32
0.0
 13
1.0
 23
1.0
340
0
 70
     7
280
     1
281
    50
282
    50
283
     0
360
0
 71
     2
 91
        5
 14
-0.5
 24
4.437319348278417
 14
0.5
 24
4.437319348278417
 14
0.5
 24
3.937319348278418
 14
-0.5
 24
3.937319348278418
 14
-0.5
 24
4.437319348278417
  0
MTEXT
  5
163
330
A
100
AcDbEntity
  8
一般
 62
     0
100
AcDbMText
 10
1812.681225549608
 20
1631.511572379831
 30
0.0
 40
35.29155815972223
 41
0.0
 71
     1
 72
     1
  1
\U+5929\U+677f
  7
ＭＳ ゴシック
 73
     1
 44
0.7828267384257841
1001
ACAD
1000
MTEXTBEGIN
1070
    73
1070
     1
1070
    44
1040
0.7828267384257841
1070
    74
1070
     0
1000
MTEXTEND
  0
WIPEOUT
  5
164
330
A
100
AcDbEntity
  8
一般
 62
     0
 92
      276
310
1401000003000000800000000A00000016C33093B9929F4007CB4AA532CB9740000000000000000000000000000000000000000000000000000000000000F03F000000000000F03F000000000000000000000000000000000000000000000000000000000000F03F000000000000000041634462576970656F757420285769
310
70654F75742900000084000000060000000500000016C33093B9929F4007CB4AA532CB97400000000000000000350C437487DCA04007CB4AA532CB97400000000000000000350C437487DCA040CD3C676CA4829840000000000000000016C33093B9929F40CD3C676CA4829840000000000000000016C33093B9929F4007CB
310
4AA532CB974000000000000000000800000015000000
100
AcDbWipeout
 90
        0
 10
2020.681225549609
 20
1883.9391388872
 30
0.0
 11
137.5833333333332
 21
0.0
 31
0.0
 12
0.0
 22
137.5833333333332
 32
0.0
 13
1.0
 23
1.0
340
0
 70
     7
280
     1
281
    50
282
    50
283
     0
360
0
 71
     2
 91
        5
 14
-0.5
 24
3.124879565518943
 14
0.5
 24
3.124879565518943
 14
0.5
 24
2.791546232185611
 14
-0.5
 24
2.791546232185611
 14
-0.5
 24
3.124879565518943
  0
MTEXT
  5
165
330
A
100
AcDbEntity
  8
一般
 62
     0
100
AcDbMText
 10
2020.681225549609
 20
1564.51157237983
 30
0.0
 40
35.29155815972223
 41
0.0
 71
     1
 72
     1
  1
SUS304
  7
ＭＳ ゴシック
 73
     1
 44
0.7828267384257841
1001
ACAD
1000
MTEXTBEGIN
1070
    73
1070
     1
1070
    44
1040
0.7828267384257841
1070
    74
1070
     0
1000
MTEXTEND
  0
WIPEOUT
  5
166
330
A
100
AcDbEntity
  8
一般
 62
     0
 92
      276
310
1401000003000000800000000A000000B98D29532DD0A14005CB4AA532C39740000000000000000000000000000000000000000000000000000000000000F03F000000000000F03F000000000000000000000000000000000000000000000000000000000000F03F000000000000000041634462576970656F757420285769
310
70654F757429000000840000000600000005000000B98D29532DD0A14005CB4AA532C397400000000000000000633894517109A34005CB4AA532C397400000000000000000633894517109A340CB3C676CA47A98400000000000000000B98D29532DD0A140CB3C676CA47A98400000000000000000B98D29532DD0A14005CB
310
4AA532C3974000000000000000000800000015000000
100
AcDbWipeout
 90
        0
 10
2280.08852510314
 20
1881.9391388872
 30
0.0
 11
156.6328004201253
 21
0.0
 31
0.0
 12
0.0
 22
156.6328004201253
 32
0.0
 13
1.0
 23
1.0
340
0
 70
     7
280
     1
281
    50
282
    50
283
     0
360
0
 71
     2
 91
        5
 14
-0.5
 24
2.805645300690454
 14
0.4999999999999984
 24
2.805645300690454
 14
0.4999999999999984
 24
2.512851511726069
 14
-0.5
 24
2.512851511726069
 14
-0.5
 24
2.805645300690454
  0
MTEXT
  5
167
330
A
100
AcDbEntity
  8
一般
 62
     0
100
AcDbMText
 10
2280.08852510314
 20
1562.51157237983
 30
0.0
 40
35.29155815972223
 41
0.0
 71
     1
 72
     1
  1
0.7{\H0.9577x;\l\U+ff4d\U+ff4d}
  7
ＭＳ ゴシック
 73
     1
 44
0.7828267384257841
1001
ACAD
1000
MTEXTBEGIN
1070
    73
1070
     1
1070
    44
1040
0.7828267384257841
1070
    74
1070
     0
1000
MTEXTEND
  0
MTEXT
  5
195
330
A
100
AcDbEntity
  8
実形
100
AcDbMText
 10
1875.322731780268
 20
-151.2159066765933
 30
0.0
 40
25.0
 41
478.1902000108686
 71
     1
 72
     5
  1
\pl25;{\fRomantic|b0|i0|c2|p2;\H1.8x;E:kitchen\fArial|b0|i0|c0|p32;\H0.7778x; \H0.3428x;U-ARCHI INC.\Ftxt.shx,bigfont.shx|c128;\H0.6945x;}
 73
     1
 44
1.0
  0
ENDSEC
  0
SECTION
  2
OBJECTS
  0
DICTIONARY
  5
19
330
0
100
AcDbDictionary
281
     1
  3
ACAD_COLOR
350
16B
  3
ACAD_GROUP
350
1A
  3
ACAD_LAYOUT
350
1E
  3
ACAD_MATERIAL
350
16A
  3
ACAD_MLINESTYLE
350
1B
  3
ACAD_PLOTSETTINGS
350
22
  3
ACAD_PLOTSTYLENAME
350
1F
  3
ACAD_WIPEOUT_VARS
350
23
  3
AcDbVariableDictionary
350
171
  0
DICTIONARY
  5
18C
330
2
100
AcDbDictionary
280
     1
281
     1
  3
ACAD_LAYERSTATES
360
18D
  0
DICTIONARY
  5
16B
102
{ACAD_REACTORS
330
19
102
}
330
19
100
AcDbDictionary
281
     1
  0
DICTIONARY
  5
1A
102
{ACAD_REACTORS
330
19
102
}
330
19
100
AcDbDictionary
281
     1
  0
DICTIONARY
  5
1E
102
{ACAD_REACTORS
330
19
102
}
330
19
100
AcDbDictionary
281
     1
  3
Layout1
350
21
  3
Model
350
20
  0
DICTIONARY
  5
16A
102
{ACAD_REACTORS
330
19
102
}
330
19
100
AcDbDictionary
281
     1
  0
DICTIONARY
  5
1B
102
{ACAD_REACTORS
330
19
102
}
330
19
100
AcDbDictionary
281
     1
  3
Standard
350
1C
  0
DICTIONARY
  5
22
102
{ACAD_REACTORS
330
19
102
}
330
19
100
AcDbDictionary
281
     1
  0
ACDBDICTIONARYWDFLT
  5
1F
102
{ACAD_REACTORS
330
19
102
}
330
19
100
AcDbDictionary
281
     1
  3
Normal
350
1D
100
AcDbDictionaryWithDefault
340
1D
  0
WIPEOUTVARIABLES
  5
23
330
19
100
AcDbWipeoutVariables
 70
     0
  0
DICTIONARY
  5
171
102
{ACAD_REACTORS
330
19
102
}
330
19
100
AcDbDictionary
281
     1
  3
DIMASSOC
350
172
  3
PROJECTNAME
350
173
  0
DICTIONARY
  5
18D
102
{ACAD_REACTORS
330
18C
102
}
330
18C
100
AcDbDictionary
281
     1
  0
LAYOUT
  5
21
102
{ACAD_REACTORS
330
1E
102
}
330
1E
100
AcDbPlotSettings
  1

  2

  4

  6

 40
0.0
 41
0.0
 42
0.0
 43
0.0
 44
0.0
 45
0.0
 46
0.0
 47
0.0
 48
0.0
 49
0.0
140
0.0
141
0.0
142
1.0
143
1.0
 70
     0
 72
     0
 73
     0
 74
     0
  7

 75
     0
147
1.0
 76
     0
 77
     2
 78
   300
148
0.0
149
0.0
100
AcDbLayout
  1
Layout1
 70
     0
 71
     1
 10
0.0
 20
0.0
 11
12.0
 21
9.0
 12
0.0
 22
0.0
 32
0.0
 14
1.000000000000000E+20
 24
1.000000000000000E+20
 34
1.000000000000000E+20
 15
-1.000000000000000E+20
 25
-1.000000000000000E+20
 35
-1.000000000000000E+20
146
0.0
 13
0.0
 23
0.0
 33
0.0
 16
1.0
 26
0.0
 36
0.0
 17
0.0
 27
1.0
 37
0.0
 76
     0
330
B
  0
LAYOUT
  5
20
102
{ACAD_REACTORS
330
1E
102
}
330
1E
100
AcDbPlotSettings
  1

  2
Canon BJ S6300
  4
A4
  6

 40
4.222749710083006
 41
5.789084434509277
 42
4.138076782226561
 43
3.799407958984375
 44
209.9733276367186
 45
296.9683227539062
 46
0.0
 47
0.0
 48
0.0
 49
0.0
140
0.0
141
0.0
142
1.0
143
1.0
 70
 11264
 72
     1
 73
     1
 74
     0
  7

 75
     0
147
1.0
 76
     0
 77
     2
 78
   300
148
-139.7914214001241
149
220.1902729897611
100
AcDbLayout
  1
Model
 70
     0
 71
     0
 10
0.0
 20
0.0
 11
0.0
 21
0.0
 12
0.0
 22
0.0
 32
0.0
 14
0.0
 24
0.0
 34
0.0
 15
0.0
 25
0.0
 35
0.0
146
0.0
 13
0.0
 23
0.0
 33
0.0
 16
0.0
 26
0.0
 36
0.0
 17
0.0
 27
0.0
 37
0.0
 76
     0
330
A
  0
MLINESTYLE
  5
1C
102
{ACAD_REACTORS
330
1B
102
}
330
1B
100
AcDbMlineStyle
  2
STANDARD
 70
     0
  3

 62
     0
 51
90.0
 52
90.0
 71
     2
 49
0.5
 62
   256
  6
BYLAYER
 49
-0.5
 62
   256
  6
BYLAYER
  0
ACDBPLACEHOLDER
  5
1D
102
{ACAD_REACTORS
330
1F
102
}
330
1F
  0
DICTIONARYVAR
  5
172
102
{ACAD_REACTORS
330
171
102
}
330
171
100
DictionaryVariables
280
     0
  1
1
  0
DICTIONARYVAR
  5
173
102
{ACAD_REACTORS
330
171
102
}
330
171
100
DictionaryVariables
280
     0
  1

  0
ENDSEC
  0
EOF
